Download Now


Pirates of the Caribbean 4 [2011][FullHD 1080p]
http://www.imdb.com/title/tt1298650/

Original title Pirates of the Caribbean: On Stranger Tides ( Pirates of the Caribbean 4)
year 2011
Duration 141 min .
Country United States
Director Rob Marshall
Guion Ted Elliott, Terry Rossio (Novel: Tim Powers)
Hans Zimmer Music
Photography Dariusz Wolski
Starring Johnny Depp , Geoffrey Rush, Penelope Cruz , Ian McShane , Sam Claflin, Kevin R. McNally , Astrid Berges -Frisbey , Oscar Jaenada , Robbie Kay, Keith Richards, Judi Dench, Stephen Graham, Richard Griffiths, Roger Allam , Paul Bazely , Gemma Ward, Andrew Crayford
Studio Walt Disney Pictures / Jerry Bruckheimer Films
Gender Aventuras. Fantastico. Action | Sea Adventures . Pirates. Swashbuckler . Sequel . 3-D
Synopsis When Jack Sparrow ( Johnny Depp) returns to meet a woman he had met years back ( Penelope Cruz ) , not sure if it's love or if she's a ruthless con artist using him to find this fabled Fountain of Youth. By the way, Jack is captured by the Queen Annes Revenge , the ship of the formidable pirate Blackbeard (Ian McShane ) , forcing him to join his crew , which will make you live an unexpected adventure in which he does not know who inspires you more afraid if Blackbeard or the woman who returns from the past.



Complete name : Piratas Del Caribe 4 (2011) 1080p Dual.mkv
Format : Matroska
Format version : Version 4 / Version 2
File size : 3.14 GiB
Duration : 2h 16mn
Overall bit rate : 3 298 Kbps
Movie name : Pirates of the Caribbean: On Stranger Tides [2011][1080p Dual]
Encoded date : UTC 2013-11-14 00:53:29
Writing application : mkvmerge v6.0.0 ('Coming Up For Air') built on Jan 20 2013 09:52:00
Writing library : libebml v1.3.0 + libmatroska v1.4.0
Video
ID : 1
Format : AVC
Format/Info : Advanced Video Codec
Format profile : [email protected]
Format settings, CABAC : Yes
Format settings, ReFrames : 4 frames
Codec ID : V_MPEG4/ISO/AVC
Duration : 2h 16mn
Bit rate : 2 464 Kbps
Width : 1 920 pixels
Height : 1 080 pixels
Display aspect ratio : 16:9
Frame rate mode : Constant
Frame rate : 23.976 fps
Color space : YUV
Chroma subsampling : 4:2:0
Bit depth : 8 bits
Scan type : Progressive
Bits/(Pixel*Frame) : 0.050
Stream size : 2.29 GiB (73%)
Writing library : x264 core 133 r2334 a3ac64b
Default : Yes
Forced : No
Audio #1
ID : 2
Format : AC-3
Format/Info : Audio Coding 3
Mode extension : CM (complete main)
Format settings, Endianness : Big
Codec ID : A_AC3
Duration : 2h 16mn
Bit rate mode : Constant
Bit rate : 448 Kbps
Channel count : 6 channels
Channel positions : Front: L C R, Side: L R, LFE
Sampling rate : 48.0 KHz
Bit depth : 16 bits
Compression mode : Lossy
Stream size : 437 MiB (14%)
Title : Espanol Latino
Default : Yes
Forced : No
Audio #2
ID : 3
Format : AC-3
Format/Info : Audio Coding 3
Mode extension : CM (complete main)
Format settings, Endianness : Big
Codec ID : A_AC3
Duration : 2h 16mn
Bit rate mode : Constant
Bit rate : 384 Kbps
Channel count : 6 channels
Channel positions : Front: L C R, Side: L R, LFE
Sampling rate : 48.0 KHz
Bit depth : 16 bits
Compression mode : Lossy
Stream size : 375 MiB (12%)
Title : Ingles
Default : No
Forced : No
Text #1
ID : 4
Format : UTF-8
Codec ID : S_TEXT/UTF8
Codec ID/Info : UTF-8 Plain Text
Default : Yes
Forced : No
Text #2
ID : 5
Format : UTF-8
Codec ID : S_TEXT/UTF8
Codec ID/Info : UTF-8 Plain Text
Title : Subtitulos Espanol
Default : No
Forced : No


Pirates of the Caribbean 4 [2011][FullHD 1080p]
Pirates of the Caribbean 4 [2011][FullHD 1080p]

Pirates of the Caribbean 4 [2011][FullHD 1080p]


http://www.uploadable.ch/file/T7jbrWmWA5m5/pircar4hd.part01.rar
http://www.uploadable.ch/file/YRmfCqxUm9vX/pircar4hd.part02.rar
http://www.uploadable.ch/file/VmDncrhjmG2S/pircar4hd.part03.rar
http://www.uploadable.ch/file/ZkbWPKU6DuZu/pircar4hd.part04.rar
http://www.uploadable.ch/file/dkDjg9yVQQxR/pircar4hd.part05.rar
http://www.uploadable.ch/file/BCs9juuxkEsf/pircar4hd.part06.rar
http://www.uploadable.ch/file/xka7CCtvrREw/pircar4hd.part07.rar
http://www.uploadable.ch/file/Uvp9kvPUTHYs/pircar4hd.part08.rar
http://www.uploadable.ch/file/j3YTcc4AUrWH/pircar4hd.part09.rar
http://www.uploadable.ch/file/edQPUnBUJPzU/pircar4hd.part10.rar
http://www.uploadable.ch/file/HjKfDTBpga9Z/pircar4hd.part11.rar
http://www.uploadable.ch/file/EMxGGRdM4Xx4/pircar4hd.part12.rar
http://www.uploadable.ch/file/x9T6K7Aj8ySZ/pircar4hd.part13.rar

Direct Download

Tags: Pirates, Caribbean, FullHD

Comments
Name:*
E-Mail:*
Add Comments:
Enter Code: *