Download Now


Mandela Long Walk to Freedom [2013][FullHD 1080p]
http://www.imdb.com/title/tt2304771/

Original title Mandela: Long Walk to Freedom
year 2013
Length 139 min.
Country United Kingdom
Director Justin Chadwick
Guion William Nicholson (Autobiography: Nelson Mandela)
Musica Alex Heffes
Photographs Lol Crawley
Starring Idris Elba, Naomie Harris, Tony Kgoroge, Riaad Moosa, Jamie Bartlett, Lindiwe Matshikiza, Terry Pheto, Deon Lotz, Mark Elderkin, Michelle Scott
Production Coproduction South Africa-UK; Pathe / Distant Horizon / Film Afrika Worldwide
Genre Drama | Biografico. Africa. Racism. 70 Years. 80 years
Synopsis biopic that chronicles the extraordinary life of South African leader Nelson Mandela, from his childhood in a rural population and 27 years in prison for activism against apartheid until his inauguration as the first democratically elected president of South Africa. This is the incredible story of an ordinary man with great values ​​to be faced the challenge and triumph of his time, an intimate portrait of how he became a modern icon



General
Complete name: Mandela.Long.Walk.to.Freedom.LATINO.2013.1080p.BluRay.x264-SPARKS.mkv
Format: Matroska
File size: 10.3 GiB
Duration: 2h 21mn
Overall bit rate: 10.4 Mbps
Encoded date: UTC 2014-02-25 22:55:44
Writing application: mkvmerge v5.7.0 ('The Whirlwind') built on Jul 8 2012 20:08:51
Writing library: libebml v1.2.3 + libmatroska v1.3.0
Video
ID: 1
Format: AVC
Format/Info: Advanced Video Codec
Format profile: [email protected]
Format settings, CABAC: Yes
Format settings, ReFrames: 5 frames
Format settings, GOP: M=4, N=16
Muxing mode: Container [email protected]
Codec ID: V_MPEG4/ISO/AVC
Duration: 2h 21mn
Bit rate: 8 461 Kbps
Width: 1 920 pixels
Height: 816 pixels
Display aspect ratio: 2.35:1
Frame rate: 23.976 fps
Color space: YUV
Chroma subsampling: 4:2:0
Bit depth: 8 bits
Scan type: Progressive
Bits/(Pixel*Frame): 0.225
Stream size: 8.14 GiB (79%)
Writing library: x264 core 140 r2377 1ca7bb9
Audio #1
ID: 2
Format: DTS
Format/Info: Digital Theater Systems
Codec ID: A_DTS
Duration: 2h 21mn
Bit rate mode: Constant
Bit rate: 1 510 Kbps
Channel(s): 6 channels
Channel positions: Front: L C R, Side: L R, LFE
Sampling rate: 48.0 KHz
Bit depth: 24 bits
Stream size: 1.49 GiB (14%)
Title: English
Audio #2
ID: 3
Format: AC-3
Format/Info: Audio Coding 3
Mode extension: CM (complete main)
Codec ID: A_AC3
Duration: 2h 21mn
Bit rate mode: Constant
Bit rate: 448 Kbps
Channel(s): 6 channels
Channel positions: Front: L C R, Side: L R, LFE
Sampling rate: 48.0 KHz
Bit depth: 16 bits
Stream size: 453 MiB (4%)
Title: Espanol Latino
Language: Spanish
AUDIOS: Ingles / Espanol Latino
SUBTITULOS: Ingles / Espanol Latino


Mandela Long Walk to Freedom [2013][FullHD 1080p]
Mandela Long Walk to Freedom [2013][FullHD 1080p]

Mandela Long Walk to Freedom [2013][FullHD 1080p]


http://www.uploadable.ch/file/VsuNbQ3YwpTc/malofrehd.part01.rar
http://www.uploadable.ch/file/D4p9cKmKJjpC/malofrehd.part02.rar
http://www.uploadable.ch/file/PyxHvebZCEWF/malofrehd.part03.rar
http://www.uploadable.ch/file/pwVqEN6jTSy9/malofrehd.part04.rar
http://www.uploadable.ch/file/T7Z22BaMkg92/malofrehd.part05.rar
http://www.uploadable.ch/file/nvcV8AMT9sbQ/malofrehd.part06.rar
http://www.uploadable.ch/file/Mje2Wz9erX7E/malofrehd.part07.rar
http://www.uploadable.ch/file/zurVqQKSWzsr/malofrehd.part08.rar
http://www.uploadable.ch/file/fEUZRgr2ba94/malofrehd.part09.rar
http://www.uploadable.ch/file/SHzqp5uT3aU9/malofrehd.part10.rar
http://www.uploadable.ch/file/RR7HP9EY9QC6/malofrehd.part11.rar
http://www.uploadable.ch/file/N86epbrJNECX/malofrehd.part12.rar
http://www.uploadable.ch/file/2fYGhc66tsFf/malofrehd.part13.rar
http://www.uploadable.ch/file/BmVceecXwxFg/malofrehd.part14.rar
http://www.uploadable.ch/file/zTrfgKCKWx7j/malofrehd.part15.rar
http://www.uploadable.ch/file/MUgqzTrwns6w/malofrehd.part16.rar
http://www.uploadable.ch/file/fe3MRC6Achbe/malofrehd.part17.rar
http://www.uploadable.ch/file/nR7a2YtkT8RR/malofrehd.part18.rar
http://www.uploadable.ch/file/PdFRRJBHausd/malofrehd.part19.rar
http://www.uploadable.ch/file/h99pEGF3Qm7w/malofrehd.part20.rar
http://www.uploadable.ch/file/qaG2zVB25hvn/malofrehd.part21.rar
http://www.uploadable.ch/file/CQ2muEHAjRGh/malofrehd.part22.rar
http://www.uploadable.ch/file/f63eDGgm5ufB/malofrehd.part23.rar
http://www.uploadable.ch/file/75T5c6pEUUyb/malofrehd.part24.rar
http://www.uploadable.ch/file/E75P9BtTg8uw/malofrehd.part25.rar
http://www.uploadable.ch/file/qkJk8cG2tHYf/malofrehd.part26.rar
http://www.uploadable.ch/file/MJkmHH5TeQ8v/malofrehd.part27.rar


Direct Download

Tags: Mandela, Freedom, FullHD

Comments
Name:*
E-Mail:*
Add Comments:
Enter Code: *