Download Now


Planet of the Apes [1968][FullHD 1080p]
http://www.imdb.com/title/tt0063442/

Original title Planet of the Apes
year 1968
Length 112 min.
Country United States
Director Franklin J. Schaffner
Rod Serling & Michael Wilson Guion (Novel: Pierre Boulle)
Jerry Goldsmith Music
Leon Photography Shamroy
Starring Charlton Heston, Roddy McDowall, Kim Hunter, Maurice Evans, James Whitmore, James Daly, Linda Harrison
Studio 20th Century Fox
Science fiction genre. Adventure | Space Adventure. Apes. Movie cult. post-apocalyptic future
Synopsis astronaut George Taylor is a part of the crew of a space-ship in a mission of long duration-that crashes on an unknown planet in which, at first glance, there is no intelligent life. However, very soon you will realize that is ruled by a race of highly developed apes mentally enslave human beings who lack the power of speech. When their leader, Dr. Zaius, Taylor discove.



Format : Matroska
Format version : Version 4 / Version 2
File size : 3.07 GiB
Duration : 1h 52mn
Overall bit rate : 3 929 Kbps
Movie name : El planeta de los simios (1968) FULL 1080p
Encoded date : UTC 2014-04-22 16:09:29
Writing application : mkvmerge v6.5.0 ('Isn't she lovely') built on Oct 20 2013 12:50:05
Writing library : libebml v1.3.0 + libmatroska v1.4.1
Video
ID : 1
Format : AVC
Format/Info : Advanced Video Codec
Format profile : [email protected]
Format settings, CABAC : Yes
Format settings, ReFrames : 2 frames
Codec ID : V_MPEG4/ISO/AVC
Duration : 1h 52mn
Bit rate : 2 954 Kbps
Width : 1 920 pixels
Height : 1 080 pixels
Display aspect ratio : 16:9
Frame rate mode : Constant
Frame rate : 23.976 fps
Color space : YUV
Chroma subsampling : 4:2:0
Bit depth : 8 bits
Scan type : Progressive
Bits/(Pixel*Frame) : 0.059
Stream size : 2.31 GiB (75%)
Title :
Writing library : x264 core
Default : Yes
Forced : No
Color primaries : BT.709
Transfer characteristics : BT.709
Matrix coefficients : BT.709
Audio #1
ID : 2
Format : AC-3
Format/Info : Audio Coding 3
Mode extension : CM (complete main)
Format settings, Endianness : Big
Codec ID : A_AC3
Duration : 1h 52mn
Bit rate mode : Constant
Bit rate : 448 Kbps
Channel count : 2 channels
Channel positions : Front: L R
Sampling rate : 48.0 KHz
Bit depth : 16 bits
Compression mode : Lossy
Stream size : 359 MiB (11%)
Title : Audio Latino
Language : Spanish
Default : Yes
Forced : No
Audio #2
ID : 3
Format : AC-3
Format/Info : Audio Coding 3
Mode extension : CM (complete main)
Format settings, Endianness : Big
Codec ID : A_AC3
Duration : 1h 52mn
Bit rate mode : Constant
Bit rate : 448 Kbps
Channel count : 6 channels
Channel positions : Front: L C R, Side: L R, LFE
Sampling rate : 48.0 KHz
Bit depth : 16 bits
Compression mode : Lossy
Stream size : 359 MiB (11%)
Title : Audio Ingles
Language : English
Default : No
Forced : No
Text #1
ID : 4
Format : UTF-8
Codec ID : S_TEXT/UTF8
Codec ID/Info : UTF-8 Plain Text
Default : Yes
Forced : No
Text #2
ID : 5
Format : PGS
Muxing mode : zlib
Codec ID : S_HDMV/PGS
Codec ID/Info : The same subtitle format used on BDs/HD-DVDs
Title : Subtitulos Latino
Language : Spanish
Default : No
Forced : No
Text #3
ID : 6
Format : PGS
Muxing mode : zlib
Codec ID : S_HDMV/PGS
Codec ID/Info : The same subtitle format used on BDs/HD-DVDs
Title : Subtitulos Ingles
Language : English
Default : No
Forced : No


Planet of the Apes [1968][FullHD 1080p]
Planet of the Apes [1968][FullHD 1080p]

Planet of the Apes [1968][FullHD 1080p]


http://www.uploadable.ch/file/dAk3NNeJHvcs/plansimdd1.part01.rar
http://www.uploadable.ch/file/K9NU8fuTxrrJ/plansimdd1.part02.rar
http://www.uploadable.ch/file/VWxM6yNp7AKg/plansimdd1.part03.rar
http://www.uploadable.ch/file/ZbDmUXMfDJZd/plansimdd1.part04.rar
http://www.uploadable.ch/file/7xKuBpX65T5N/plansimdd1.part05.rar
http://www.uploadable.ch/file/BhSVJj95f2y5/plansimdd1.part06.rar
http://www.uploadable.ch/file/y4dAPRhRNKVv/plansimdd1.part07.rar
http://www.uploadable.ch/file/AJGvBjmMTAVC/plansimdd1.part08.rar
http://www.uploadable.ch/file/JSyCdEwxF9Ux/plansimdd1.part09.rar
http://www.uploadable.ch/file/nTZCFgJD4Mj8/plansimdd1.part10.rar
http://www.uploadable.ch/file/ZqW8pNzBxhBs/plansimdd1.part11.rar
http://www.uploadable.ch/file/PxDWWXtabXw6/plansimdd1.part12.rar
http://www.uploadable.ch/file/HnVbg7ANZ4SR/plansimdd1.part13.rar
Direct Download

Tags: Planet, FullHD

Comments
Name:*
E-Mail:*
Add Comments:
Enter Code: *