Download Now

Mortdecai (2015) 1080p WEB-DL DD5 1 H264-HunkyDory
IMDB link http://www.imdb.com/title/tt3045616/


Format : Matroska
Format version : Version 4 / Version 2
File size : 3.57 GiB
Duration : 1h 46mn
Overall bit rate : 4 791 Kbps
Movie name : DUAL-LAPUMiA
Encoded date : UTC 2015-04-16 20:20:45
Writing application : mkvmerge v7.7.0 ('Six Voices') 32bit built on Feb 28 2015 23:23:00
Writing library : libebml v1.3.1 + libmatroska v1.4.2
DURATION : 01:46:44.320000000
NUMBER_OF_FRAMES : 200135
NUMBER_OF_BYTES : 307407360
_STATISTICS_WRITING_APP : mkvmerge v7.7.0 ('Six Voices') 32bit built on Feb 28 2015 23:23:00
_STATISTICS_WRITING_DATE_UTC : 2015-04-16 20:20:45
_STATISTICS_TAGS : BPS DURATION NUMBER_OF_FRAMES NUMBER_OF_BYTES

Video
ID : 1
Format : AVC
Format/Info : Advanced Video Codec
Format profile : [email protected]
Format settings, CABAC : Yes
Format settings, ReFrames : 5 frames
Codec ID : V_MPEG4/ISO/AVC
Duration : 1h 46mn
Bit rate : 4 312 Kbps
Width : 1 908 pixels
Height : 792 pixels
Display aspect ratio : 2.40:1
Frame rate mode : Constant
Frame rate : 23.976 fps
Color space : YUV
Chroma subsampling : 4:2:0
Bit depth : 8 bits
Scan type : Progressive
Bits/(Pixel*Frame) : 0.119
Stream size : 3.21 GiB (90%)
Language : English
Default : Yes
Forced : No
Color primaries : BT.709
Transfer characteristics : BT.709
Matrix coefficients : BT.709
Color range : Limited

Audio
ID : 2
Format : AC-3
Format/Info : Audio Coding 3
Mode extension : CM (complete main)
Format settings, Endianness : Big
Codec ID : A_AC3
Duration : 1h 46mn
Bit rate mode : Constant
Bit rate : 384 Kbps
Channel(s) : 6 channels
Channel positions : Front: L C R, Side: L R, LFE
Sampling rate : 48.0 KHz
Bit depth : 16 bits
Compression mode : Lossy
Stream size : 293 MiB (8%)
Title : ENG AC3 5.1 LAPUMiA
Language : English
Default : No
Forced : No
Download - Rapidgator

http://rapidgator.net/file/a62dd8e887136994a81716df84e23539/Mortdecai.2015.1080p.WEB-DL.DD5.1.H264-HunkyDory.mkv.html
Direct Download

Tags: Mortdecai, HunkyDory

Comments
Name:*
E-Mail:*
Add Comments:
Enter Code: *