Download Now


Percy Jackson Sea of Monsters [2013][3D 1080pp]

Original title Percy Jackson: Sea of ​​Monsters
Year 2013
Duration 106 min.
Country United States
Director Thor Freudenthal
Guion Scott Alexander, Larry Karaszewski, Marc Guggenheim (Novel: Rick Riordan)
Musica Andrew Lockington
Photography Shelly Johnson
Starring Logan Lerman, Alexandra Daddario, Douglas Smith, Daniel Cudmore, Stanley Tucci, Nathan Fillion, Jake Abel, Missi Pyle, Brandon T. Jackson, Anthony Head, Leven Rambin, Robert Maillet, Derek Mears, Yvette Nicole Brown, Grey Damon, Mary Birdsong
Studio Fox 2000 Pictures / Trireme Productions
Gender Fantastico. Adventure | Mythology. Sequela
Synopsis To save his world, Percy and his friends must find the Golden Fleece. Also experience a real odyssey plying the waters of the Sea of ​​Monsters (which men call the Bermuda Triangle), it will have to confront terrifying creatures, an army of zombies and the devil himself..



General
Format : Matroska
Format version : Version 4 / Version 2
File size : 2.78 GiB
Duration : 1h 46mn
Overall bit rate : 3 749 Kbps
Movie name : Percy Jackson Sea of Monsters (2013) [1080p Dual]
Encoded date : UTC 2013-11-28 13:33:54
Writing application : mkvmerge v6.0.0 (Coming Up For Air) built on Jan 20 2013 09:52:00
Writing library : libebml v1.3.0 + libmatroska v1.4.0
Video
ID : 1
Format : AVC
Format/Info : Advanced Video Codec
Format profile : [email protected]
Format settings, CABAC : Yes
Format settings, ReFrames : 4 frames
Codec ID : V_MPEG4/ISO/AVC
Duration : 1h 46mn
Bit rate : 3 000 Kbps
Width : 1 920 pixels
Height : 1 080 pixels
Display aspect ratio : 16:9
Frame rate mode : Constant
Frame rate : 23.976 fps
Color space : YUV
Chroma subsampling : 4:2:0
Bit depth : 8 bits
Scan type : Progressive
Bits/(Pixel*Frame) : 0.060
Stream size : 2.16 GiB (78%)
Writing library : x264 core 130 r2273 b3065e6
Default : Yes
Forced : No
Color primaries : BT.709
Transfer characteristics : BT.709
Matrix coefficients : BT.709
Audio #1
ID : 2
Format : AC-3
Format/Info : Audio Coding 3
Mode extension : CM (complete main)
Format settings, Endianness : Big
Codec ID : A_AC3
Duration : 1h 46mn
Bit rate mode : Constant
Bit rate : 448 Kbps
Channel count : 6 channels
Channel positions : Front: L C R, Side: L R, LFE
Sampling rate : 48.0 KHz
Bit depth : 16 bits
Compression mode : Lossy
Stream size : 340 MiB (12%)
Title : Latin Spanish
Default : Yes
Forced : No
Audio #2
ID : 3
Format : AC-3
Format/Info : Audio Coding 3
Mode extension : CM (complete main)
Format settings, Endianness : Big
Codec ID : A_AC3
Duration : 1h 46mn
Bit rate mode : Constant
Bit rate : 320 Kbps
Channel count : 6 channels
Channel positions : Front: L C R, Side: L R, LFE
Sampling rate : 44.1 KHz
Bit depth : 16 bits
Compression mode : Lossy
Stream size : 243 MiB (9%)
Title : ENglish
Default : No
Forced : No
Text #1
ID : 4
Format : UTF-8
Codec ID : S_TEXT/UTF8
Codec ID/Info : UTF-8 Plain Text
Title : Sub spanish
Default : No
Forced : No
Text #2
ID : 5
Format : UTF-8
Codec ID : S_TEXT/UTF8
Codec ID/Info : UTF-8 Plain Text
Title : Sub english
Default : No
Forced : No
Text #3
ID : 6
Format : UTF-8
Codec ID : S_TEXT/UTF8
Codec ID/Info : UTF-8 Plain Text
Default : Yes
Forced : No


Percy Jackson Sea of Monsters [2013][3D 1080pp]
Percy Jackson Sea of Monsters [2013][3D 1080pp]

Percy Jackson Sea of Monsters [2013][3D 1080pp]


http://www.uploadable.ch/file/nFrFwUsJ5A4B/prjac23df.part01.rar
http://www.uploadable.ch/file/Yk7fw4j98PxK/prjac23df.part02.rar
http://www.uploadable.ch/file/Avummqujm9Th/prjac23df.part03.rar
http://www.uploadable.ch/file/Jbk7qtuwAF4n/prjac23df.part04.rar
http://www.uploadable.ch/file/rpGmxgJAqtV8/prjac23df.part05.rar
http://www.uploadable.ch/file/MSEakWkAu2AC/prjac23df.part06.rar
http://www.uploadable.ch/file/uwF4Zd7DRmpg/prjac23df.part07.rar
http://www.uploadable.ch/file/k6jBmNeFut9B/prjac23df.part08.rar
http://www.uploadable.ch/file/6W2GnvbzhqmJ/prjac23df.part09.rar
http://www.uploadable.ch/file/SnZe992T2uyn/prjac23df.part10.rar
http://www.uploadable.ch/file/yHxAMbrfYcP7/prjac23df.part11.rar
http://www.uploadable.ch/file/2a77qxTrWJ4R/prjac23df.part12.rar
Direct Download

Tags: Jackson, Monsters

Comments
Name:*
E-Mail:*
Add Comments:
Enter Code: *