Download Now

Hunterrr (2015) 1CDRip - 480p - WEB-HD - x264 - AAC - TT Exc
Format : MPEG-4
Format profile : Base Media
Codec ID : isom
File size : 736 MiB
Duration : 2h 20mn
Overall bit rate mode : Variable
Overall bit rate : 732 Kbps
Encoded date : UTC 2015-04-06 14:04:13
Tagged date : UTC 2015-04-06 14:04:13

Video
ID : 1
Format : AVC
Format/Info : Advanced Video Codec
Format profile : [email protected]
Format settings, CABAC : Yes
Format settings, ReFrames : 3 frames
Codec ID : avc1
Codec ID/Info : Advanced Video Coding
Duration : 2h 20mn
Bit rate : 603 Kbps
Width : 600 pixels
Height : 480 pixels
Display aspect ratio : 5:4
Frame rate mode : Constant
Frame rate : 24.000 fps
Color space : YUV
Chroma subsampling : 4:2:0
Bit depth : 8 bits
Scan type : Progressive
Bits/(Pixel*Frame) : 0.087
Stream size : 606 MiB (82%)
Encoded date : UTC 2015-04-06 14:04:13
Tagged date : UTC 2015-04-06 14:04:13

Audio
ID : 2
Format : AAC
Format/Info : Advanced Audio Codec
Format profile : LC
Codec ID : 40
Duration : 2h 20mn
Bit rate mode : Variable
Bit rate : 126 Kbps
Channel(s) : 2 channels
Channel positions : Front: L R
Sampling rate : 44.1 KHz
Compression mode : Lossy
Stream size : 126 MiB (17%)
Encoded date : UTC 2015-04-06 14:03:14
Tagged date : UTC 2015-04-06 14:03:14
Download - Rapidgator

http://rapidgator.net/file/a65ba0ef23dac891a47dd48b290aa3b1/Hunterrr.2015.Untouched.480p.WEBHD.AAC.2.0-Team.Telly.Exclusive.MP4.html
Direct Download

Tags: Hunterrr

Comments
Name:*
E-Mail:*
Add Comments:
Enter Code: *