Download Now

The Hunger Games 2012 576P BDRip X264 AC3 SeeN-CM8
The Hunger Games 2012 576P BDRip X264 AC3 SeeN-CM8 | 2.97 GB


Genral Info
Complete name : The.Hunger.Games.2012.576P.BDRip.X264.AC3.SeeN-CM8.mkv
Format : Matroska
Format version : Version 2
File size : 2.95 GiB
Duration : 2h 22mn
Overall bit rate : 2 964 Kbps
Writing application : mkvmerge v5.7.0

Video
ID : 1
Format : AVC
Format/Info : Advanced Video Codec
Format profile : [email protected]
Muxing mode : Header stripping
Codec ID : V_MPEG4/ISO/AVC
Duration : 2h 22mn
Bit rate : 2 500 Kbps
Width : 1 024 pixels
Height : 432 pixels
Display aspect ratio : 2.35:1
Frame rate : 23.976 fps
Stream size : 2.45 GiB (83%)

Audio
ID : 2
Format : AC-3
Bit rate : 448 Kbps
Channel(s) : 6 channels
Channel positions : Front: L C R, Side: L R, LFE
Sampling rate : 48.0 KHz
Stream size : 457 MiB (15%)
Language : English

Text #1
ID : 3
Format : PGS
Muxing mode : zlib
Codec ID : S_HDMV/PGS
Codec ID/Info : The same subtitle format used on BDs/HD-DVDs
Title : SDH
Language : English
Default : Yes
Forced : No

Text #2
ID : 4
Format : PGS
Muxing mode : zlib
Codec ID : S_HDMV/PGS
Codec ID/Info : The same subtitle format used on BDs/HD-DVDs
Language : English
Default : No
Forced : No

Menu
00:00:00.000 : en: District 12
00:10:05.814 : en: Check In
00:18:00.079 : en: Try to Win
00:25:05.879 : en: Advise
00:31:12.662 : en: First Look
00:43:28.564 : en: Shoot Straight
00:50:38.702 : en: Girl On Fire
00:56:58.915 : en: Special Girl
01:06:57.764 : en: Countdown
01:15:58.971 : en: At the Edge
01:22:06.046 : en: Very Lethal
01:29:00.418 : en: Not Going to Hurt You
01:38:00.750 : en: Trapped
01:43:19.193 : en: Young Love
01:57:56.611 : en: Only Team
02:09:26.550 : en: Star Crossed Lovers

Plot:
Set in a future where the Capitol selects a boy and girl from the twelve districts
to fight to the death on live television, Katniss Everdeen volunteers to take her
younger sister's place for the latest match.

Director: Gary Ross
Writers: Gary Ross (screenplay), Suzanne Collins (screenplay)
Stars: Jennifer Lawrence, Josh Hutcherson and Liam Hemsworth


Download Now

Extabit

http://extabit.com/file/27u7pyogxmw5y/The.Hunger.Games.2012.576P.BDRip.X264.AC3.SeeN-CM8.part1.rar
http://extabit.com/file/27u7pyogy9pzq/The.Hunger.Games.2012.576P.BDRip.X264.AC3.SeeN-CM8.part2.rar

Netload.in

http://www.netload.in/dateiojl6g5oLBO/The.Hunger.Games.2012.576P.BDRip.X264.AC3.SeeN-CM8.part1.rar.htm
http://www.netload.in/dateiYo57R1NVJs/The.Hunger.Games.2012.576P.BDRip.X264.AC3.SeeN-CM8.part2.rar.htm
Direct Download

Tags: Hunger

Comments
Name:*
E-Mail:*
Add Comments:
Enter Code: *