Download Now


Youre Next [2011][Full HD 1080p]

Original title Youre Next
year 2011
Duration 96 min.
Country United States
Director Adam Wingard
Guion Simon Barrett
Music Mads Heldtberg
Photographs Andrew Droz Palermo
Cast Sharni Vinson, Nicholas Tucci, Wendy Glenn, AJ Bowen, Joe Swanberg, Sarah Myers, Amy Seimetz, Rob Moran, Barbara Crampton, Ti West, Simon Barrett, LC Holt
Studio HanWay Films / Snoot Entertainment
Gender Terror. Thriller | Slasher. Black comedy. Mumblecore. Indie USA
Synopsis The Davison family is attacked by a group of sadistic murderers during a family outing. Entrenched in the holiday house, facing the assailants. The masked murderers did not have the presence of Erin, the girlfriend of the eldest son of Davison, whose mysterious past has made strong and very hard to kill.



General
Youre Next (2011) [FULL 1080p Dual].mkv
Format : Matroska
Format version : Version 4 / Version 2
File size : 2.55 GiB
Duration : 1h 34mn
Overall bit rate : 3 865 Kbps
Movie name : Youre Next (2011) [FULL 1080p Dual]
Encoded date : UTC 2014-01-04 03:40:01
Writing application : mkvmerge v6.0.0 (Coming Up For Air) built on Jan 20 2013 09:52:00
Writing library : libebml v1.3.0 + libmatroska v1.4.0
Video
ID : 1
Format : AVC
Format/Info : Advanced Video Codec
Format profile : [email protected]
Format settings, CABAC : Yes
Format settings, ReFrames : 2 frames
Codec ID : V_MPEG4/ISO/AVC
Duration : 1h 34mn
Bit rate : 2 892 Kbps
Width : 1 920 pixels
Height : 1 080 pixels
Display aspect ratio : 16:9
Frame rate mode : Constant
Frame rate : 23.976 fps
Color space : YUV
Chroma subsampling : 4:2:0
Bit depth : 8 bits
Scan type : Progressive
Bits/(Pixel*Frame) : 0.058
Stream size : 1.91 GiB (75%)
Writing library : x264 core
Default : Yes
Forced : No
Color primaries : BT.709
Transfer characteristics : BT.709
Matrix coefficients : BT.709
Audio #1
ID : 2
Format : AC-3
Format/Info : Audio Coding 3
Mode extension : CM (complete main)
Format settings, Endianness : Big
Codec ID : A_AC3
Duration : 1h 34mn
Bit rate mode : Constant
Bit rate : 448 Kbps
Channel count : 6 channels
Channel positions : Front: L C R, Side: L R, LFE
Sampling rate : 48.0 KHz
Bit depth : 16 bits
Compression mode : Lossy
Stream size : 302 MiB (12%)
Title : spanish
Default : Yes
Forced : No
Audio #2
ID : 3
Format : AC-3
Format/Info : Audio Coding 3
Mode extension : CM (complete main)
Format settings, Endianness : Big
Codec ID : A_AC3
Duration : 1h 34mn
Bit rate mode : Constant
Bit rate : 448 Kbps
Channel count : 6 channels
Channel positions : Front: L C R, Side: L R, LFE
Sampling rate : 48.0 KHz
Bit depth : 16 bits
Compression mode : Lossy
Stream size : 302 MiB (12%)
Title : english
Default : No
Forced : No
Text #1
ID : 4
Format : VobSub
Muxing mode : zlib
Codec ID : S_VOBSUB
Codec ID/Info : The same subtitle format used on DVDs
Title : spanish
Default : No
Forced : No
Text #2
ID : 5
Format : VobSub
Muxing mode : zlib
Codec ID : S_VOBSUB
Codec ID/Info : The same subtitle format used on DVDs
Title : english
Default : No
Forced : No
Text #3
ID : 6
Format : UTF-8
Codec ID : S_TEXT/UTF8
Codec ID/Info : UTF-8 Plain Text
Default : Yes
Forced : No


Youre Next [2011][Full HD 1080p]
Youre Next [2011][Full HD 1080p]


Youre Next [2011][Full HD 1080p]


http://www.uploadable.ch/file/qpReE67mWd8W/younehd.part01.rar
http://www.uploadable.ch/file/HtePMVz5p3Pu/younehd.part02.rar
http://www.uploadable.ch/file/XeyqDa82qDVZ/younehd.part03.rar
http://www.uploadable.ch/file/A4AGQTth3NJ9/younehd.part04.rar
http://www.uploadable.ch/file/ZDCgJN2dWhyn/younehd.part05.rar
http://www.uploadable.ch/file/CfwEfCrfRN4U/younehd.part06.rar
http://www.uploadable.ch/file/m5uDJbJQuEBD/younehd.part07.rar
http://www.uploadable.ch/file/BjnsDpfY4Dqe/younehd.part08.rar
http://www.uploadable.ch/file/7SfV7gqbjDr4/younehd.part09.rar
http://www.uploadable.ch/file/qe2Zq2wvAeSx/younehd.part10.rar
http://www.uploadable.ch/file/bHcfmgnV2DqX/younehd.part11.rar
Direct Download
Comments
Name:*
E-Mail:*
Add Comments:
Enter Code: *