Download Now

Jupiter Ascending 2015 CAMRip XviD-FANTA - (Antonhyip)
Jupiter Ascending - In a bright and colorful future, a young destitute caretaker gets targeted by the ruthless son of a powerful family who lives on a planet in need of a new heir, so she travels with a genetically engineered warrior to the planet in order to stop his tyrant reign.

1.72 gb
Genre, Action, Fantasy, Sci-Fi
Actors Channing Tatum, Mila Kunis, Eddie Redmayne
Jupiter Ascending 2015 CAMRip XviD-FANTA - (Antonhyip)
IMDB link
http://www.imdb.com/title/tt1617661/

Video
ID                                       : 0
Format                                   : MPEG-4 Visual
Format profile                           : Advanced [email protected]
Format settings, BVOP                    : 2
Format settings, QPel                    : No
Format settings, GMC                     : No warppoints
Format settings, Matrix                  : Default (H.263)
Muxing mode                              : Packed bitstream
Codec ID                                 : XVID
Codec ID/Hint                            : XviD
Duration                                 : 1h 58mn
Bit rate                                 : 1 892 Kbps
Width                                    : 720 pixels
Height                                   : 320 pixels
Display aspect ratio                     : 2.25:1
Frame rate                               : 29.970 fps
Color space                              : YUV
Chroma subsampling                       : 4:2:0
Bit depth                                : 8 bits
Scan type                                : Progressive
Compression mode                         : Lossy
Bits/(Pixel*Frame)                       : 0.274
Stream size                              : 1.56 GiB (91%)
Writing library                          : XviD 64
Audio
ID                                       : 1
Format                                   : AC-3
Format/Info                              : Audio Coding 3
Mode extension                           : CM (complete main)
Codec ID                                 : 2000
Duration                                 : 1h 58mn
Bit rate mode                            : Constant
Bit rate                                 : 192 Kbps
Channel(s)                               : 2 channels
Channel positions                        : Front: L R
Sampling rate                            : 44.1 KHz
Bit depth                                : 16 bits
Compression mode                         : Lossy
Stream size                              : 162 MiB (9%)
Alignment                                : Aligned on interleaves
Interleave, duration                     : 70 ms (2.09 video frames)
Interleave, preload duration             : 208 ms


(Buy PREMIUM ACCOUNT = Fast and Unlimited Speed, Resume and No Wait)


All above links are interchangable. No password


Jupiter Ascending 2015 CAMRip XviD-FANTA
Direct Download

Tags: Jupiter, Ascending, CAMRip, Antonhyip

Comments
Name:*
E-Mail:*
Add Comments:
Enter Code: *