Download Now


Mrs. Doubtfire [1993][Full HD 1080p]

Original title Mrs. Doubtfire
year 1993
Duration 125 min.
Country United States
Director Chris Columbus
Guion Randi Mayem Singer, Leslie Dixon
Howard Shore Music
Photography Donald McAlpine
Starring Robin Williams, Sally Field, Pierce Brosnan, Mara Wilson, Harvey Fierstein, Lisa Jakub, Polly Holliday, Robert Prosky, Matthew Lawrence, Anne Haney
Studio 20th Century Fox
Genre Comedy. Drama | Family. Television. family film
Synopsis Daniel Hillard's father and husband. His children consider him a wonderful father, but his wife is tired of it behave as if it were also the child. After a rough divorce, but fight with all their might to get custody of the children, the judge called upon to do. He then decides to impersonate a larger lady to be at least the access to his children



General
Mrs Doubtfire (1993) [FULL 1080p Dual].mkv
Format : Matroska
Format version : Version 4 / Version 2
File size : 3.32 GiB
Duration : 2h 5mn
Overall bit rate : 3 800 Kbps
Movie name : Mrs Doubtfire (1993) [FULL 1080p Dual]
Encoded date : UTC 2014-02-15 00:56:58
Writing application : mkvmerge v6.0.0 (Coming Up For Air) built on Jan 20 2013 09:52:00
Writing library : libebml v1.3.0 + libmatroska v1.4.0
Video
ID : 1
Format : AVC
Format/Info : Advanced Video Codec
Format profile : [email protected]
Format settings, CABAC : Yes
Format settings, ReFrames : 4 frames
Codec ID : V_MPEG4/ISO/AVC
Duration : 2h 5mn
Bit rate : 3 000 Kbps
Width : 1 920 pixels
Height : 1 080 pixels
Display aspect ratio : 16:9
Frame rate mode : Constant
Frame rate : 23.976 fps
Color space : YUV
Chroma subsampling : 4:2:0
Bit depth : 8 bits
Scan type : Progressive
Bits/(Pixel*Frame) : 0.060
Stream size : 2.59 GiB (78%)
Writing library : x264 core 130 r2273 b3065e6
Default : Yes
Forced : No
Color primaries : BT.709
Transfer characteristics : BT.709
Matrix coefficients : BT.709
Audio #1
ID : 2
Format : AC-3
Format/Info : Audio Coding 3
Mode extension : CM (complete main)
Format settings, Endianness : Big
Codec ID : A_AC3
Duration : 2h 5mn
Bit rate mode : Constant
Bit rate : 448 Kbps
Channel count : 6 channels
Channel positions : Front: L C R, Side: L R, LFE
Sampling rate : 44.1 KHz
Bit depth : 16 bits
Compression mode : Lossy
Stream size : 401 MiB (12%)
Language : Spanish
Default : Yes
Forced : No
Audio #2
ID : 3
Format : AC-3
Format/Info : Audio Coding 3
Mode extension : CM (complete main)
Format settings, Endianness : Big
Codec ID : A_AC3
Duration : 2h 5mn
Bit rate mode : Constant
Bit rate : 320 Kbps
Channel count : 6 channels
Channel positions : Front: L C R, Side: L R, LFE
Sampling rate : 44.1 KHz
Bit depth : 16 bits
Compression mode : Lossy
Stream size : 287 MiB (8%)
Language : English
Default : No
Forced : No
Text #1
ID : 4
Format : PGS
Muxing mode : zlib
Codec ID : S_HDMV/PGS
Codec ID/Info : The same subtitle format used on BDs/HD-DVDs
Language : Spanish
Default : No
Forced : No
Text #2
ID : 5
Format : PGS
Muxing mode : zlib
Codec ID : S_HDMV/PGS
Codec ID/Info : The same subtitle format used on BDs/HD-DVDs
Language : Spanish
Default : No
Forced : No
Text #3
ID : 6
Format : PGS
Muxing mode : zlib
Codec ID : S_HDMV/PGS
Codec ID/Info : The same subtitle format used on BDs/HD-DVDs
Language : English
Default : No
Forced : No
Text #4
ID : 7
Format : UTF-8
Codec ID : S_TEXT/UTF8
Codec ID/Info : UTF-8 Plain Text
Default : Yes
Forced : No


Mrs. Doubtfire [1993][Full HD 1080p]
Mrs. Doubtfire [1993][Full HD 1080p]

Mrs. Doubtfire [1993][Full HD 1080p]


http://www.uploadable.ch/file/ZsGNu7w2hUxC/mdoyhfhd.part01.rar
http://www.uploadable.ch/file/hZJHHZZJXhmV/mdoyhfhd.part02.rar
http://www.uploadable.ch/file/NqaEAaGNAA8P/mdoyhfhd.part03.rar
http://www.uploadable.ch/file/nEcz4uDcbnVj/mdoyhfhd.part04.rar
http://www.uploadable.ch/file/dCG9rnwyHNYv/mdoyhfhd.part05.rar
http://www.uploadable.ch/file/YaqE9dBH9566/mdoyhfhd.part06.rar
http://www.uploadable.ch/file/Yj9eFj6f5Ssm/mdoyhfhd.part07.rar
http://www.uploadable.ch/file/2znKav2J2h8v/mdoyhfhd.part08.rar
http://www.uploadable.ch/file/Dge9p8G8j3VR/mdoyhfhd.part09.rar
http://www.uploadable.ch/file/jq7HjFth6H27/mdoyhfhd.part10.rar
http://www.uploadable.ch/file/ZCBykyru3m59/mdoyhfhd.part11.rar
http://www.uploadable.ch/file/k2aTVugVCc9B/mdoyhfhd.part12.rar
http://www.uploadable.ch/file/wvV6yuddQGp2/mdoyhfhd.part13.rar
http://www.uploadable.ch/file/n8drpyzErTYF/mdoyhfhd.part14.rar
Direct Download

Tags: Doubtfire

Comments
Name:*
E-Mail:*
Add Comments:
Enter Code: *