Download Now

Roald Dahls Esio Trot (2015) 1080p BluRay x264 DTS-RARBG
Roald Dahls Esio Trot (2015) 1080p BluRay x264 DTS-RARBG

Video
ID : 1
Format : AVC
Format/Info : Advanced Video Codec
Format profile : [email protected]
/* */
Format settings, CABAC : Yes
Format settings, ReFrames : 4 frames
Codec ID : V_MPEG4/ISO/AVC
Duration : 1h 27mn
Bit rate : 9 510 Kbps
Width : 1 920 pixels
Height : 1 080 pixels
Display aspect ratio : 16:9
Frame rate mode : Constant
Frame rate : 25.000 fps
Color space : YUV
Chroma subsampling : 4:2:0
Bit depth : 8 bits
Scan type : Progressive
Bits/(Pixel*Frame) : 0.183
Stream size : 5.84 GiB (85%)
Title : Roald.Dahls.Esio.Trot.2015.1080p.BluRay.x264.DTS-RARBG
Writing library : x264 core 144 r2525 40bb568
Encoding settings : cabac=1 / ref=4 / deblock=1:-1:-1 / analyse=0x3:0x133 / me=umh >>
/ subme=7 / psy=1 / psy_rd=1.00:0.15 / mixed_ref=1 / me_range=16 / chroma_me=1 / trellis=1 / 8x8dct=1 >>
/ cqm=0 / deadzone=21,11 / fast_pskip=0 / chroma_qp_offset=-3 / threads=6 / lookahead_threads=1 / >>
sliced_threads=0 / nr=0 / decimate=1 / interlaced=0 / bluray_compat=0 / constrained_intra=0 / >>
bframes=3 / b_pyramid=2 / b_adapt=1 / b_bias=0 / direct=1 / weightb=1 / open_gop=0 / weightp=2 / >>
keyint=250 / keyint_min=25 / scenecut=40 / intra_refresh=0 / rc_lookahead=40 / rc=crf / mbtree=1 / crf=20.0 >>
/ qcomp=0.60 / qpmin=0 / qpmax=69 / qpstep=4 / ip_ratio=1.40 / aq=1:1.00
Default : Yes
Forced : No
Audio
ID : 2
Format : DTS
Format/Info : Digital Theater Systems
Mode : 16
Format settings, Endianness : Big
Codec ID : A_DTS
Duration : 1h 27mn
Bit rate mode : Constant
Bit rate : 1 509 Kbps
Channel(s) : 6 channels
Channel positions : Front: L C R, Side: L R, LFE
Sampling rate : 48.0 KHz
Bit depth : 16 bits
Compression mode : Lossy
Stream size : 949 MiB (13%)
Title : Roald.Dahls.Esio.Trot.2015.1080p.BluRay.x264.DTS-RARBG
Language : English
Default : No
Forced : No
Menu
00:00:00.000 : en:00:00:00.000
00:07:33.600 : en:00:07:33.600
00:14:12.000 : en:00:14:12.000
00:20:45.680 : en:00:20:45.680
00:29:04.880 : en:00:29:04.880
00:36:54.400 : en:00:36:54.400
00:43:06.400 : en:00:43:06.400
00:52:24.920 : en:00:52:24.920
01:01:02.160 : en:01:01:02.160
01:07:18.200 : en:01:07:18.200
01:15:24.120 : en:01:15:24.120
01:20:43.120 : en:01:20:43.120
Roald Dahls Esio Trot (2015) 1080p BluRay x264 DTS-RARBG

(Buy PREMIUM ACCOUNT = Fast and Unlimited Speed, Resume and No Wait)


All above links are interchangable. No password


Roald Dahls Esio Trot (2015) 1080p BluRay x264 DTS-RARBG
Direct Download

Tags: BluRay

Comments
Name:*
E-Mail:*
Add Comments:
Enter Code: *