Download Now


Harry Potter and the Order of the Phoenix [2007]

Original title Harry Potter and the Order of the Phoenix (Harry Potter 5)
year 2007
Duration 138 min.
Country UK
Director David Yates
Guion Michael Goldenberg (Novel: J. K. Rowling)
Music Nicholas Hooper (Topic: John Williams)
Photographs Slawomir Idziak
Starring Daniel Radcliffe, Emma Watson, Rupert Grint, Tom Felton, Ralph Fiennes, Jason Isaacs, Helena Bonham Carter, Robbie Coltrane, Michael Gambon, Brendan Gleeson, Richard Griffiths, Gary Oldman, Alan Rickman, Fiona Shaw, Maggie Smith, Imelda Staunton, David Thewlis, Emma Thompson, Julie Walters, Robert Pattinson, Natalia Tena, Matthew Lewis, Evanna Lynch, Bonnie Wright, David Bradley, Katie Leung, Warwick Davis, Mark Williams, James Phelps, Oliver Phelps, Afshan Azad, Shefali Chowdhury, Robert Hardy Chris Rankin, Timothy Bateson
Production Co-production GB-USA; Warner Bros. Pictures
Gender Fantastico. Adventures. Drama | Magic. sequela
Synopsis tedious vacation at his uncles still not finished and Harry is more restless than ever. Hardly has heard from Ron and Hermione, and senses that something strange is happening at Hogwarts. Indeed, when it finally starts another course in the famous School of Witchcraft and Wizardry, their fears become reality. The Ministry of Magic denies that Voldemort has returned and began a smear campaign against Harry and Dumbledore, entrusting the horrible Professor Dolores Umbridge the task of monitoring their every move. So, then, aside from feeling alone and misunderstood, Harry suspects that Voldemort can guess your thoughts and senses that the fearsome wizard tries to grab a secret object that allow to recover their destructive power.



General
Format : Matroska
Format version : Version 4 / Version 2
File size : 3.54 GiB
Duration : 2h 18mn
Overall bit rate : 3 670 Kbps
Movie name : Harry Potter 5 (2007) [FULL 1080p Dual]
Encoded date : UTC 2013-12-21 03:39:08
Writing application : mkvmerge v6.0.0 (Coming Up For Air) built on Jan 20 2013 09:52:00
Writing library : libebml v1.3.0 + libmatroska v1.4.0
Video
ID : 1
Format : AVC
Format/Info : Advanced Video Codec
Format profile : [email protected]
Format settings, CABAC : Yes
Format settings, ReFrames : 2 frames
Codec ID : V_MPEG4/ISO/AVC
Duration : 2h 18mn
Bit rate : 2 701 Kbps
Width : 1 920 pixels
Height : 1 080 pixels
Display aspect ratio : 16:9
Frame rate mode : Constant
Frame rate : 23.976 fps
Color space : YUV
Chroma subsampling : 4:2:0
Bit depth : 8 bits
Scan type : Progressive
Bits/(Pixel*Frame) : 0.054
Stream size : 2.61 GiB (74%)
Writing library : x264 core
Default : Yes
Forced : No
Color primaries : BT.709
Transfer characteristics : BT.709
Matrix coefficients : BT.709
Audio #1
ID : 2
Format : AC-3
Format/Info : Audio Coding 3
Mode extension : CM (complete main)
Format settings, Endianness : Big
Codec ID : A_AC3
Duration : 2h 18mn
Bit rate mode : Constant
Bit rate : 448 Kbps
Channel count : 6 channels
Channel positions : Front: L C R, Side: L R, LFE
Sampling rate : 48.0 KHz
Bit depth : 16 bits
Compression mode : Lossy
Stream size : 443 MiB (12%)
Title : Audio latin spanish
Default : Yes
Forced : No
Audio #2
ID : 3
Format : AC-3
Format/Info : Audio Coding 3
Mode extension : CM (complete main)
Format settings, Endianness : Big
Codec ID : A_AC3
Duration : 2h 18mn
Bit rate mode : Constant
Bit rate : 448 Kbps
Channel count : 6 channels
Channel positions : Front: L C R, Side: L R, LFE
Sampling rate : 48.0 KHz
Bit depth : 16 bits
Compression mode : Lossy
Stream size : 443 MiB (12%)
Title : Audio english
Default : No
Forced : No
Text #1
ID : 4
Format : VobSub
Muxing mode : zlib
Codec ID : S_VOBSUB
Codec ID/Info : The same subtitle format used on DVDs
Title : Subtitles latin spanish
Default : No
Forced : No
Text #2
ID : 5
Format : VobSub
Muxing mode : zlib
Codec ID : S_VOBSUB
Codec ID/Info : The same subtitle format used on DVDs
Title : Subtitles english
Default : No
Forced : No
Text #3
ID : 6
Format : UTF-8
Codec ID : S_TEXT/UTF8
Codec ID/Info : UTF-8 Plain Text
Default : Yes
Forced : No


Harry Potter and the Order of the Phoenix [2007]
Harry Potter and the Order of the Phoenix [2007]

Harry Potter and the Order of the Phoenix [2007]



http://www.uploadable.ch/file/wh3cpEAWHcSD/hapot5hd.part01.rar
http://www.uploadable.ch/file/mjh8QtPnA2XS/hapot5hd.part02.rar
http://www.uploadable.ch/file/Qx4kuZaAR5QX/hapot5hd.part03.rar
http://www.uploadable.ch/file/EBGqGyhgdUWC/hapot5hd.part04.rar
http://www.uploadable.ch/file/rSA3xHst9cNx/hapot5hd.part05.rar
http://www.uploadable.ch/file/XCVjWy4Gsm3v/hapot5hd.part06.rar
http://www.uploadable.ch/file/xsqpZ3Fnzxwk/hapot5hd.part07.rar
http://www.uploadable.ch/file/KQXxayZurFVg/hapot5hd.part08.rar
http://www.uploadable.ch/file/f2DVqDZ6qxuv/hapot5hd.part09.rar
http://www.uploadable.ch/file/Zt9AHjQT9hCJ/hapot5hd.part10.rar
http://www.uploadable.ch/file/AFXM267Gprfn/hapot5hd.part11.rar
http://www.uploadable.ch/file/yPKWQ34yEbqP/hapot5hd.part12.rar
http://www.uploadable.ch/file/wjgcaRg3xmG7/hapot5hd.part13.rar
http://www.uploadable.ch/file/kSkZYWV9f4ng/hapot5hd.part14.rar
http://www.uploadable.ch/file/R53F4YjXxtAN/hapot5hd.part15.rar

Direct Download

Tags: Potter, Phoenix

Comments
Name:*
E-Mail:*
Add Comments:
Enter Code: *