Download Now


Gravity 3D [2013][3D OU FULL 1080pp]

Original title Gravity
year 2013
Duration 90 min.
Country United States
Director Alfonso Cuaron
Guion Alfonso Cuaron, Jonas Cuaron
Musica Steven Price
Photographs Emmanuel Lubezki
Starring Sandra Bullock, George Clooney, Phaldut Sharma
Studio Warner Bros. Pictures / Esperanto Filmoj / Heyday Films
Science fiction genre. Drama | Space Adventure. Survival. 3-D
Synopsis While repairing a satellite outside their spacecraft, two astronauts suffer a serious accident and are floating in space. Are Dr. Ryan Stone, a brilliant engineer who makes his first space mission, and veteran astronaut Matt Kowalsky. The outside looked like a routine mission, but a shower of space junk reaches them and disaster occurs: the satellite and part of the ship are shattered, leaving Ryan and Matt completely alone, from which point try by all means seek a solution for return to Earth.



General
Gravity (2013) [3D OU 1080p Dual].mkv
Format : Matroska
Format version : Version 4 / Version 2
File size : 2.64 GiB
Duration : 1h 43mn
Overall bit rate : 3 643 Kbps
Movie name : Gravity (2013) [3D OU 1080p Dual]
Encoded date : UTC 2014-02-09 02:28:44
Writing application : mkvmerge v6.0.0 (Coming Up For Air) built on Jan 20 2013 09:52:00
Writing library : libebml v1.3.0 + libmatroska v1.4.0
Video
ID : 1
Format : AVC
Format/Info : Advanced Video Codec
Format profile : [email protected]
Format settings, CABAC : Yes
Format settings, ReFrames : 4 frames
Codec ID : V_MPEG4/ISO/AVC
Duration : 1h 43mn
Bit rate : 2 675 Kbps
Nominal bit rate : 3 300 Kbps
Width : 1 920 pixels
Height : 1 080 pixels
Display aspect ratio : 16:9
Frame rate mode : Constant
Frame rate : 23.976 fps
Color space : YUV
Chroma subsampling : 4:2:0
Bit depth : 8 bits
Scan type : Progressive
Bits/(Pixel*Frame) : 0.054
Stream size : 1.94 GiB (73%)
Writing library : x264 core 130 r2273 b3065e6
Default : Yes
Forced : No
Color primaries : BT.709
Transfer characteristics : BT.709
Matrix coefficients : BT.709
Audio #1
ID : 2
Format : AC-3
Format/Info : Audio Coding 3
Mode extension : CM (complete main)
Format settings, Endianness : Big
Codec ID : A_AC3
Duration : 1h 43mn
Bit rate mode : Constant
Bit rate : 448 Kbps
Channel count : 6 channels
Channel positions : Front: L C R, Side: L R, LFE
Sampling rate : 48.0 KHz
Bit depth : 16 bits
Compression mode : Lossy
Stream size : 333 MiB (12%)
Title : Audio Latino
Default : Yes
Forced : No
Audio #2
ID : 3
Format : AC-3
Format/Info : Audio Coding 3
Mode extension : CM (complete main)
Format settings, Endianness : Big
Codec ID : A_AC3
Duration : 1h 43mn
Bit rate mode : Constant
Bit rate : 448 Kbps
Channel count : 6 channels
Channel positions : Front: L C R, Side: L R, LFE
Sampling rate : 48.0 KHz
Bit depth : 16 bits
Compression mode : Lossy
Stream size : 333 MiB (12%)
Title : Audio Ingles
Default : No
Forced : No
Text #1
ID : 4
Format : VobSub
Muxing mode : zlib
Codec ID : S_VOBSUB
Codec ID/Info : The same subtitle format used on DVDs
Title : Subtitulos Latino
Default : No
Forced : No
Text #2
ID : 5
Format : VobSub
Muxing mode : zlib
Codec ID : S_VOBSUB
Codec ID/Info : The same subtitle format used on DVDs
Title : Subtitulos Latino
Default : No
Forced : No
Text #3
ID : 6
Format : VobSub
Muxing mode : zlib
Codec ID : S_VOBSUB
Codec ID/Info : The same subtitle format used on DVDs
Title : Subtitulos Ingles
Default : No
Forced : No
Text #4
ID : 7
Format : UTF-8
Codec ID : S_TEXT/UTF8
Codec ID/Info : UTF-8 Plain Text
Default : Yes
Forced : No


Gravity 3D [2013][3D OU FULL 1080pp]
Gravity 3D [2013][3D OU FULL 1080pp]

Gravity 3D [2013][3D OU FULL 1080pp]



http://www.uploadable.ch/file/BKY88GtkwH35/gavitg3d.part01.rar
http://www.uploadable.ch/file/wWtCaYwnF2Tx/gavitg3d.part02.rar
http://www.uploadable.ch/file/udSCkUSjgx9t/gavitg3d.part03.rar
http://www.uploadable.ch/file/wjjkdFZwyACs/gavitg3d.part04.rar
http://www.uploadable.ch/file/6Gs4t3a3rmWY/gavitg3d.part05.rar
http://www.uploadable.ch/file/Km6JvZa8edEU/gavitg3d.part06.rar
http://www.uploadable.ch/file/CtAkjpPtxXka/gavitg3d.part07.rar
http://www.uploadable.ch/file/Ep6HKtd4yAWB/gavitg3d.part08.rar
http://www.uploadable.ch/file/5c6GnpEfr5ev/gavitg3d.part09.rar
http://www.uploadable.ch/file/XX9DA4yA78CU/gavitg3d.part10.rar
http://www.uploadable.ch/file/2WRCEcHKmppg/gavitg3d.part11.rar

Direct Download

Tags: Gravity

Comments
Name:*
E-Mail:*
Add Comments:
Enter Code: *