Download Now


Cold Comes the Night [2014][FULL 1080pp]

Original title Cold Comes the Night
year 2014
Duration 90 min.
Country United States
Director Tze Chun
Guion Tze Chun, Oz Perkins, Nick Simon
Jeff Grace Music
Noah Rosenthal Photography
Starring Alice Eve, Bryan Cranston, Logan Marshall-Green, Ursula Parker, Leo Fitzpatrick, Erin Cummings, Robin Taylor, Sarah Sokolovic, Marceline Hugot
Sasquatch Films Production / Syncopated Films / Three Point Capital
Genre Thriller. Drama | Kidnappings / Disappearances. crime
Synopsis The owner of a motel (Alice Eve) is kidnapped along with his daughter (Ursula Parker) by a criminal on the verge of blindness (Bryan Cranston), to be your eyes and try to recover money from a corrupt cop (Marshall -Green)



General
Cold Comes the Night (2014) [FULL 1080p Dual]
Format : Matroska
Format version : Version 4 / Version 2
File size : 2.23 GiB
Duration : 1h 30mn
Overall bit rate : 3 534 Kbps
Movie name : Cold Comes the Night (2014) [FULL 1080p Dual]
Encoded date : UTC 2014-03-03 20:06:59
Writing application : mkvmerge v6.0.0 (Coming Up For Air) built on Jan 20 2013 09:52:00
Writing library : libebml v1.3.0 + libmatroska v1.4.0
Video
ID : 1
Format : AVC
Format/Info : Advanced Video Codec
Format profile : [email protected]
Format settings, CABAC : Yes
Format settings, ReFrames : 4 frames
Codec ID : V_MPEG4/ISO/AVC
Duration : 1h 30mn
Bit rate : 2 760 Kbps
Nominal bit rate : 3 000 Kbps
Width : 1 920 pixels
Height : 1 080 pixels
Display aspect ratio : 16:9
Frame rate mode : Constant
Frame rate : 23.976 fps
Color space : YUV
Chroma subsampling : 4:2:0
Bit depth : 8 bits
Scan type : Progressive
Bits/(Pixel*Frame) : 0.056
Stream size : 1.74 GiB (78%)
Writing library : x264 core 130 r2273 b3065e6
Default : Yes
Forced : No
Color primaries : BT.709
Transfer characteristics : BT.709
Matrix coefficients : BT.709
Audio #1
ID : 2
Format : AC-3
Format/Info : Audio Coding 3
Mode extension : CM (complete main)
Format settings, Endianness : Big
Codec ID : A_AC3
Duration : 1h 30mn
Bit rate mode : Constant
Bit rate : 384 Kbps
Channel count : 6 channels
Channel positions : Front: L C R, Side: L R, LFE
Sampling rate : 48.0 KHz
Bit depth : 16 bits
Compression mode : Lossy
Stream size : 249 MiB (11%)
Title : Audio Latino
Language : Spanish
Default : Yes
Forced : No
Audio #2
ID : 3
Format : AC-3
Format/Info : Audio Coding 3
Mode extension : CM (complete main)
Format settings, Endianness : Big
Codec ID : A_AC3
Duration : 1h 30mn
Bit rate mode : Constant
Bit rate : 320 Kbps
Channel count : 6 channels
Channel positions : Front: L C R, Side: L R, LFE
Sampling rate : 44.1 KHz
Bit depth : 16 bits
Compression mode : Lossy
Stream size : 207 MiB (9%)
Title : Audio Ingles
Language : English
Default : No
Forced : No
Text #1
ID : 4
Format : UTF-8
Codec ID : S_TEXT/UTF8
Codec ID/Info : UTF-8 Plain Text
Title : Subtitulos Latino
Language : Spanish
Default : No
Forced : No
Text #2
ID : 5
Format : UTF-8
Codec ID : S_TEXT/UTF8
Codec ID/Info : UTF-8 Plain Text
Title : Subtitulos Ingles
Language : English
Default : No
Forced : No
Text #3
ID : 6
Format : UTF-8
Codec ID : S_TEXT/UTF8
Codec ID/Info : UTF-8 Plain Text
Default : Yes
Forced : No


Cold Comes the Night [2014][FULL 1080pp]
Cold Comes the Night [2014][FULL 1080pp]

Cold Comes the Night [2014][FULL 1080pp]



http://www.uploadable.ch/file/XM6Zkm2AQYNJ/colconihd.part01.rar
http://www.uploadable.ch/file/TYqjHw2tj7Au/colconihd.part02.rar
http://www.uploadable.ch/file/Q9dhVM4puGQZ/colconihd.part03.rar
http://www.uploadable.ch/file/4HDyePuD3Knv/colconihd.part04.rar
http://www.uploadable.ch/file/7qBBB2mugTzu/colconihd.part05.rar
http://www.uploadable.ch/file/yjQfNwGdkDEP/colconihd.part06.rar
http://www.uploadable.ch/file/ZzEA6BTj8Gej/colconihd.part07.rar
http://www.uploadable.ch/file/HbBs8dtg7xC8/colconihd.part08.rar
http://www.uploadable.ch/file/FAhbUtvBKcUD/colconihd.part09.rar
http://www.uploadable.ch/file/tSnJ5pesvzww/colconihd.part10.rar

Direct Download
Comments
Name:*
E-Mail:*
Add Comments:
Enter Code: *