Download Now


The Hobbit 2 3D [2013][Full 3D OU 1080]

Originally titled The Hobbit: The Desolation of Smaug (The Hobbit 2)
Ano 2013
Duration 160 min.
Country United States
Director Peter Jackson
Guion Philippa Boyens, Peter Jackson, Fran Walsh, Guillermo del Toro (Novel: JRR Tolkien)
Music Howard Shore
Photographs Andrew Lesnie
Starring Martin Freeman, Richard Armitage, Ian McKellen, Aidan Turner, Luke Evans, Evangeline Lilly, Ken Stott, Orlando Bloom, Graham McTavish, James Nesbitt, Jed Brophy, Stephen Hunter, Ken Stott, John Callen, Adam Brown, Dean Ogorman William Kircher, Peter Hambleton, Mark Hadlow, Lee Pace, Ryan Gage, Stephen Fry, Mikael Persbrandt, Sylvester McCoy, Manu Bennett
Studio Metro-Goldwyn-Mayer (MGM) / New Line Cinema / Wingnut Films
Gender Fantastico. Aventuras. Action | Sword and sorcery. Dragons. Sequel. 3-D
Synopsis "The Hobbit: The Desolation of Smaug" continues the adventures of Bilbo Baggins on his journey with the wizard Gandalf and thirteen dwarves led by Thorin Oakenshield in an epic quest to reclaim the Dwarf Kingdom of Erebor. On his way stumble upon many dangers and will make fearsome dragon Smaug against.



General
Complete name : The Hobbit The Desolation of Smaug (2013) FULL 1080p 3D HOU.mkv
Format : Matroska
Format version : Version 2
File size : 4.65 GiB
Duration : 2h 41mn
Overall bit rate : 4 172 Kbps
Movie name : The Hobbit 2: The Desolation of Smaug (2013) FULL 1080p 3D HOU Latino-Ingles
Encoded date : UTC 2014-06-06 07:41:39
Writing application : mkvmerge v5.7.0 (The Whirlwind) built on Jul 8 2012 20:08:51
Writing library : libebml v1.2.3 + libmatroska v1.3.0
Video
ID : 1
Format : AVC
Format/Info : Advanced Video Codec
Format profile : [email protected]
Format settings, CABAC : Yes
Format settings, ReFrames : 4 frames
Muxing mode : Header stripping
Codec ID : V_MPEG4/ISO/AVC
Duration : 2h 41mn
Bit rate : 3 300 Kbps
Width : 1 920 pixels
Height : 1 080 pixels
Display aspect ratio : 16:9
Frame rate mode : Constant
Frame rate : 23.976 fps
Color space : YUV
Chroma subsampling : 4:2:0
Bit depth : 8 bits
Scan type : Progressive
Bits/(Pixel*Frame) : 0.066
Stream size : 3.60 GiB (77%)
Writing library : x264 core 130 r2273 b3065e6
Default : Yes
Forced : No
Color primaries : BT.709
Transfer characteristics : BT.709
Matrix coefficients : BT.709
Audio #1
ID : 2
Format : AC-3
Format/Info : Audio Coding 3
Mode extension : CM (complete main)
Format settings, Endianness : Big
Muxing mode : Header stripping
Codec ID : A_AC3
Duration : 2h 41mn
Bit rate mode : Constant
Bit rate : 448 Kbps
Channel(s) : 6 channels
Channel positions : Front: L C R, Side: L R, LFE
Sampling rate : 48.0 KHz
Bit depth : 16 bits
Compression mode : Lossy
Stream size : 517 MiB (11%)
Title : Audio Latino
Language : Spanish
Default : Yes
Forced : No
Audio #2
ID : 3
Format : AC-3
Format/Info : Audio Coding 3
Mode extension : CM (complete main)
Format settings, Endianness : Big
Muxing mode : Header stripping
Codec ID : A_AC3
Duration : 2h 41mn
Bit rate mode : Constant
Bit rate : 448 Kbps
Channel(s) : 6 channels
Channel positions : Front: L C R, Side: L R, LFE
Sampling rate : 48.0 KHz
Bit depth : 16 bits
Compression mode : Lossy
Stream size : 517 MiB (11%)
Title : Audio Ingles
Language : English
Default : No
Forced : No
Text #1
ID : 4
Format : PGS
Muxing mode : zlib
Codec ID : S_HDMV/PGS
Codec ID/Info : The same subtitle format used on BDs/HD-DVDs
Title : Subtitulos Espanol
Language : Spanish
Default : No
Forced : No
Text #2
ID : 5
Format : PGS
Muxing mode : zlib
Codec ID : S_HDMV/PGS
Codec ID/Info : The same subtitle format used on BDs/HD-DVDs
Title : Subtitulos Ingles
Language : English
Default : No
Forced : No
Text #3
ID : 6
Format : UTF-8
Codec ID : S_TEXT/UTF8
Codec ID/Info : UTF-8 Plain Text
Title : Subtitulos Forzados
Language : Spanish
Default : No
Forced : No
Text #4
ID : 7
Format : UTF-8
Codec ID : S_TEXT/UTF8
Codec ID/Info : UTF-8 Plain Text
Default : Yes
Forced : No


The Hobbit 2 3D [2013][Full 3D OU 1080]
The Hobbit 2 3D [2013][Full 3D OU 1080]


The Hobbit 2 3D [2013][Full 3D OU 1080]



http://www.uploadable.ch/file/VVfKahbh7a5u/thhob233d.part01.rar
http://www.uploadable.ch/file/JWpBCChQaDSk/thhob233d.part02.rar
http://www.uploadable.ch/file/UmNQ3K6mYtmC/thhob233d.part03.rar
http://www.uploadable.ch/file/Fm56SFZmTDxs/thhob233d.part04.rar
http://www.uploadable.ch/file/F5yTKCbDhN5M/thhob233d.part05.rar
http://www.uploadable.ch/file/Cvf4GgQM9WVP/thhob233d.part06.rar
http://www.uploadable.ch/file/4FmC6B4N53X3/thhob233d.part07.rar
http://www.uploadable.ch/file/TUX8qecpN7Ve/thhob233d.part08.rar
http://www.uploadable.ch/file/s9qC6MWAzhZy/thhob233d.part09.rar
http://www.uploadable.ch/file/5ejSj3k6jF5M/thhob233d.part10.rar
http://www.uploadable.ch/file/yvf7ZvzjZPzb/thhob233d.part11.rar
http://www.uploadable.ch/file/E4mH865YsHZt/thhob233d.part12.rar
http://www.uploadable.ch/file/pU6qPy2Tvfev/thhob233d.part13.rar
http://www.uploadable.ch/file/cx3V9cTxtc5D/thhob233d.part14.rar
http://www.uploadable.ch/file/XCj8hQm5GQ9x/thhob233d.part15.rar
http://www.uploadable.ch/file/S8Rjz82sEdj4/thhob233d.part16.rar
http://www.uploadable.ch/file/FRHfCqDjJ4CQ/thhob233d.part17.rar
http://www.uploadable.ch/file/VR8BjmhyWdg7/thhob233d.part18.rar
http://www.uploadable.ch/file/egW8t5bNh2GC/thhob233d.part19.rar
http://www.uploadable.ch/file/ewUzEVfNt6P3/thhob233d.part20.rar

Direct Download

Tags: Hobbit

Comments
Name:*
E-Mail:*
Add Comments:
Enter Code: *