Download Now


Saving General Yang [2013][FullHD 1080]
http://www.imdb.com/title/tt2072220/

Original title Duong Gia Tuong (Saving General Yang)
year 2013
Length 102 min.
Country Hong Kong
Director Ronny Yu
Guion Edmond Wong, Ronny Yu, Lo Kat
Kenji Kawai Music
Chi Ying Chan Photography
Cast Adam Cheng, Fan Xu, Ekin Cheng, Wu Chun, Vic Chow, Raymond Lam, Chen Li, Bing Shao, Bryan Leung
Production Coproduction Hong Kong-China; Pegasus Motion Pictures
Gender Action. Thriller | Epic Film
Synopsis The story belongs to a famous traditional Chinese story, "The Yang Saga", a story of sacrifice to defend their land.



Format : Matroska
Format version : Version 2
File size : 2.21 GiB
Duration : 1h 25mn
Overall bit rate : 3 721 Kbps
Movie name : Saving General Yang (2013) [FULL 1080p]
Encoded date : UTC 2013-12-22 17:28:29
Writing application : mkvmerge v5.7.0 ('The Whirlwind') built on Jul 8 2012 20:08:51
Writing library : libebml v1.2.3 + libmatroska v1.3.0
Video
ID : 1
Format : AVC
Format/Info : Advanced Video Codec
Format profile : [email protected]
Format settings, CABAC : Yes
Format settings, ReFrames : 4 frames
Muxing mode : Header stripping
Codec ID : V_MPEG4/ISO/AVC
Duration : 1h 25mn
Bit rate : 3 000 Kbps
Width : 1 920 pixels
Height : 1 080 pixels
Display aspect ratio : 16:9
Frame rate mode : Constant
Frame rate : 23.976 fps
Color space : YUV
Chroma subsampling : 4:2:0
Bit depth : 8 bits
Scan type : Progressive
Bits/(Pixel*Frame) : 0.060
Stream size : 1.71 GiB (77%)
Writing library : x264 core 130 r2273 b3065e6
Default : Yes
Forced : No
Color primaries : BT.709
Transfer characteristics : BT.709
Matrix coefficients : BT.709
Audio #1
ID : 3
Format : AC-3
Format/Info : Audio Coding 3
Mode extension : CM (complete main)
Format settings, Endianness : Big
Muxing mode : Header stripping
Codec ID : A_AC3
Duration : 1h 25mn
Bit rate mode : Constant
Bit rate : 320 Kbps
Channel count : 6 channels
Channel positions : Front: L C R, Side: L R, LFE
Sampling rate : 44.1 KHz
Bit depth : 16 bits
Compression mode : Lossy
Stream size : 195 MiB (9%)
Title : Audio Ingles
Default : No
Forced : No
Text #1
ID : 4
Format : UTF-8
Codec ID : S_TEXT/UTF8
Codec ID/Info : UTF-8 Plain Text
Title : Subtitulos Latino
Default : No
Forced : No
Text #2
ID : 5
Format : UTF-8
Codec ID : S_TEXT/UTF8
Codec ID/Info : UTF-8 Plain Text
Title : Subtitulos Ingles
Default : No
Forced : No
Text #3
ID : 6
Format : UTF-8
Codec ID : S_TEXT/UTF8
Codec ID/Info : UTF-8 Plain Text
Default : Yes
Forced : No


Saving General Yang [2013][FullHD 1080]
Saving General Yang [2013][FullHD 1080]

Saving General Yang [2013][FullHD 1080]





http://www.uploadable.ch/file/HHTdJmPV23ug/sagnryahd.part01.rar
http://www.uploadable.ch/file/7f79hQDdQSrD/sagnryahd.part02.rar
http://www.uploadable.ch/file/Z6zjgWswtd34/sagnryahd.part03.rar
http://www.uploadable.ch/file/pXWA2kp3hxCq/sagnryahd.part04.rar
http://www.uploadable.ch/file/BeDNUd23TU6h/sagnryahd.part05.rar
http://www.uploadable.ch/file/gKw2dpfzxqDd/sagnryahd.part06.rar
http://www.uploadable.ch/file/3Z5VAyPyh9YF/sagnryahd.part07.rar
http://www.uploadable.ch/file/VGSnmTQT373u/sagnryahd.part08.rar
http://www.uploadable.ch/file/n9SkdRQ9MVN9/sagnryahd.part09.rar
http://www.uploadable.ch/file/ENDvq9z6wcTx/sagnryahd.part10.rar

Direct Download

Tags: Saving, General, FullHD

Comments
Name:*
E-Mail:*
Add Comments:
Enter Code: *