Download Now


Back to the Future [1985][FullHD 1080]
http://www.imdb.com/title/tt0088763/

Original title Back to the Future
year 1985
Length 116 min.
Country United States
Director Robert Zemeckis
Guion Bob Gale & Robert Zemeckis
Music Alan Silvestri
Photography Dean Cundey
Starring Michael J. Fox, Christopher Lloyd, Lea Thompson, Crispin Glover, Claudia Wells, Thomas F. Wilson, James Tolkan, Billy Zane, Sachi Parker
Universal Pictures Production
Science fiction genre. Comedy. Fantastico. Adventure | Time Travel. Teen Comedy. Adolescents. family film
Synopsis The teenager Marty McFly is a friend of Doc, a scientist to take all crazy. When Doc creates a machine to travel through time, a fortuitous error causes Marty gets to 1955, year in which his future parents had not even met. After prevent their first meeting, shall get to meet and marry; otherwise, its existence would not be possible.



Complete name : Volver Al Futuro 1 (1985) 1080p Dual.mkv
Format : Matroska
Format version : Version 4 / Version 2
File size : 2.65 GiB
Duration : 1h 56mn
Overall bit rate : 3 263 Kbps
Movie name : Back To The Future [1985][1080p Dual]
Encoded date : UTC 2013-11-23 19:56:16
Writing application : mkvmerge v6.0.0 ('Coming Up For Air') built on Jan 20 2013 09:52:00
Writing library : libebml v1.3.0 + libmatroska v1.4.0
Video
ID : 1
Format : AVC
Format/Info : Advanced Video Codec
Format profile : [email protected]
Format settings, CABAC : Yes
Format settings, ReFrames : 4 frames
Codec ID : V_MPEG4/ISO/AVC
Duration : 1h 56mn
Bit rate : 2 400 Kbps
Width : 1 920 pixels
Height : 1 080 pixels
Display aspect ratio : 16:9
Frame rate mode : Constant
Frame rate : 23.976 fps
Color space : YUV
Chroma subsampling : 4:2:0
Bit depth : 8 bits
Scan type : Progressive
Bits/(Pixel*Frame) : 0.048
Stream size : 1.87 GiB (71%)
Writing library : x264 core 130 r2273 b3065e6
Default : Yes
Forced : No
Color primaries : BT.709
Transfer characteristics : BT.709
Matrix coefficients : BT.709
Audio #1
ID : 2
Format : AC-3
Format/Info : Audio Coding 3
Mode extension : CM (complete main)
Format settings, Endianness : Big
Codec ID : A_AC3
Duration : 1h 56mn
Bit rate mode : Constant
Bit rate : 448 Kbps
Channel count : 6 channels
Channel positions : Front: L C R, Side: L R, LFE
Sampling rate : 48.0 KHz
Bit depth : 16 bits
Compression mode : Lossy
Stream size : 372 MiB (14%)
Title : Espanol Latino
Default : Yes
Forced : No
Audio #2
ID : 3
Format : AC-3
Format/Info : Audio Coding 3
Mode extension : CM (complete main)
Format settings, Endianness : Big
Codec ID : A_AC3
Duration : 1h 56mn
Bit rate mode : Constant
Bit rate : 448 Kbps
Channel count : 6 channels
Channel positions : Front: L C R, Side: L R, LFE
Sampling rate : 48.0 KHz
Bit depth : 16 bits
Compression mode : Lossy
Stream size : 372 MiB (14%)
Title : Ingles
Default : No
Forced : No
Text #1
ID : 4
Format : UTF-8
Codec ID : S_TEXT/UTF8
Codec ID/Info : UTF-8 Plain Text
Default : Yes
Forced : No
Text #2
ID : 5
Format : UTF-8
Codec ID : S_TEXT/UTF8
Codec ID/Info : UTF-8 Plain Text
Title : Subtitulos Espanol
Default : No
Forced : No


Back to the Future [1985][FullHD 1080]
Back to the Future [1985][FullHD 1080]
Back to the Future [1985][FullHD 1080]





http://www.uploadable.ch/file/6hpbus7K9nfc/bacifut1hd.part01.rar
http://www.uploadable.ch/file/Z8APUEB9tKSk/bacifut1hd.part02.rar
http://www.uploadable.ch/file/GDVST2ckmwnU/bacifut1hd.part03.rar
http://www.uploadable.ch/file/JGDpJRmjQDuE/bacifut1hd.part04.rar
http://www.uploadable.ch/file/YuYUYG23U2ZD/bacifut1hd.part05.rar
http://www.uploadable.ch/file/SGtXwqdfr3CA/bacifut1hd.part06.rar
http://www.uploadable.ch/file/zxEypJ9ERqnB/bacifut1hd.part07.rar
http://www.uploadable.ch/file/xbpQ3WRsxp6v/bacifut1hd.part08.rar
http://www.uploadable.ch/file/XJ55THyNU5QF/bacifut1hd.part09.rar
http://www.uploadable.ch/file/K4K4HcFMmqTa/bacifut1hd.part10.rar
http://www.uploadable.ch/file/3KKjhTfyXtEU/bacifut1hd.part11.rar

Direct Download

Tags: Future, FullHD

Comments
Name:*
E-Mail:*
Add Comments:
Enter Code: *