Download Now


Police Academy 7 [1994][FullHD 1080]

ORIGINAL TITLE Police Academy: Mission to Moscow
ANO 1994
COUNTRY USA
DIRECTOR Alan Metter
SCRIPT Randolph Davis, Michele S. Chodos
MUSIC Robert Folk
PHOTOGRAPHY Ian Jones
CAST George Gaynes, Michael Winslow, David Graf, Leslie Easterbrook, GW Bailey, Christopher Lee, Ron Perlman, Claire Forlani, Charlie Schlatter, Richard Israel
PRODUCER Warner Bros.
GENRE Comedy | Policiaco. Crime. sequel
SYNOPSIS Now, the most famous and unique Florida agents travel to Russia to work with the Soviet police. The goal is to catch a criminal named Konali, has been done with a computer program capable of controlling sophisticated security systems worldwide, committing robberies around the globe.



General
Police Academy 7 (1994) [FULL 1080p Dual]
Format : Matroska
Format version : Version 4 / Version 2
File size : 2.01 GiB
Duration : 1h 22mn
Overall bit rate : 3 485 Kbps
Movie name : Police Academy 7 (1994) [FULL 1080p Dual]
Encoded date : UTC 2014-01-28 14:38:35
Writing application : mkvmerge v6.0.0 (Coming Up For Air) built on Jan 20 2013 09:52:00
Writing library : libebml v1.3.0 + libmatroska v1.4.0
Video
ID : 1
Format : AVC
Format/Info : Advanced Video Codec
Format profile : [email protected]
Format settings, CABAC : Yes
Format settings, ReFrames : 4 frames
Codec ID : V_MPEG4/ISO/AVC
Duration : 1h 22mn
Bit rate : 3 000 Kbps
Width : 1 920 pixels
Height : 1 080 pixels
Display aspect ratio : 16:9
Frame rate mode : Constant
Frame rate : 23.976 fps
Color space : YUV
Chroma subsampling : 4:2:0
Bit depth : 8 bits
Scan type : Progressive
Bits/(Pixel*Frame) : 0.060
Stream size : 1.68 GiB (83%)
Writing library : x264 core 130 r2273 b3065e6
Default : Yes
Forced : No
Color primaries : BT.709
Transfer characteristics : BT.709
Matrix coefficients : BT.709
Audio #1
ID : 2
Format : AC-3
Format/Info : Audio Coding 3
Mode extension : CM (complete main)
Format settings, Endianness : Big
Codec ID : A_AC3
Duration : 1h 22mn
Bit rate mode : Constant
Bit rate : 192 Kbps
Channel count : 2 channels
Channel positions : Front: L R
Sampling rate : 48.0 KHz
Bit depth : 16 bits
Compression mode : Lossy
Stream size : 114 MiB (6%)
Title : Audio Latino
Default : Yes
Forced : No
Audio #2
ID : 3
Format : AC-3
Format/Info : Audio Coding 3
Mode extension : CM (complete main)
Format settings, Endianness : Big
Codec ID : A_AC3
Duration : 1h 22mn
Bit rate mode : Constant
Bit rate : 320 Kbps
Channel count : 2 channels
Channel positions : Front: L R
Sampling rate : 44.1 KHz
Bit depth : 16 bits
Compression mode : Lossy
Stream size : 189 MiB (9%)
Title : Audio Ingles
Default : No
Forced : No
Text #1
ID : 4
Format : UTF-8
Codec ID : S_TEXT/UTF8
Codec ID/Info : UTF-8 Plain Text
Title : Subtitulos Latino
Default : No
Forced : No
Text #2
ID : 5
Format : UTF-8
Codec ID : S_TEXT/UTF8
Codec ID/Info : UTF-8 Plain Text
Title : Subtitulos Ingles
Default : No
Forced : No
Text #3
ID : 6
Format : UTF-8
Codec ID : S_TEXT/UTF8
Codec ID/Info : UTF-8 Plain Text
Default : Yes
Forced : No


Police Academy 7 [1994][FullHD 1080]
Police Academy 7 [1994][FullHD 1080]

Police Academy 7 [1994][FullHD 1080]



http://www.uploadable.ch/file/JCGV7BBspteW/polacd7hd.part01.rar
http://www.uploadable.ch/file/hKCEFCcvPeJj/polacd7hd.part02.rar
http://www.uploadable.ch/file/mEAYx7a2Utve/polacd7hd.part03.rar
http://www.uploadable.ch/file/ngv3FzZBUAGC/polacd7hd.part04.rar
http://www.uploadable.ch/file/zSfDFFJVqZ27/polacd7hd.part05.rar
http://www.uploadable.ch/file/84ksRZqScjRh/polacd7hd.part06.rar
http://www.uploadable.ch/file/83yttb7YCbnW/polacd7hd.part07.rar
http://www.uploadable.ch/file/9aWetwNqh6SH/polacd7hd.part08.rar
http://www.uploadable.ch/file/ZYbAAcMyhrQF/polacd7hd.part09.rar

Direct Download

Tags: Police, Academy, FullHD

Comments
Name:*
E-Mail:*
Add Comments:
Enter Code: *