Download Now

http://i65.fastpic.ru/big/2014/0730/5e/3beb523dc82fb3c37d31a299d57f445e.jpg

Batman: Assault on Arkham (2014)
HDRip | AVI / XVID, 1731 Kbps | 720x400 | 1h 15mn | 1.13 GB | English: AC3, 384 Kbps (2 ch) | Subtitles: None
WEB-DL 720p | MKV / AVC, 2600 Kbps | 1280x720 | 1h 15mn | 1.15 GB | English: AC3, 384 Kbps (6 ch) | Subtitles: None
Genre: Animation | Action | Crime | Thriller

Based on the hit video game series, Batman must find a bomb planted by the Joker while dealing with a mysterious team of villains called, The Suicide Squad.

imdb

General
Complete name : Batman.Assault.on.Arkham.2014.HDRip.XviD.AC3-EVO.avi
Format : AVI
Format/Info : Audio Video Interleave
File size : 1.13 GiB
Duration : 1h 15mn
Overall bit rate : 2 124 Kbps
Writing library : VirtualDub build 32593/release

Video
ID : 0
Format : MPEG-4 Visual
Format profile : Advanced [email protected]
Format settings, BVOP : 2
Format settings, QPel : No
Format settings, GMC : No warppoints
Format settings, Matrix : Default (H.263)
Muxing mode : Packed bitstream
Codec ID : XVID
Codec ID/Hint : XviD
Duration : 1h 15mn
Bit rate : 1 731 Kbps
Width : 720 pixels
Height : 400 pixels
Display aspect ratio : 16:9
Frame rate : 23.976 fps
Color space : YUV
Chroma subsampling : 4:2:0
Bit depth : 8 bits
Scan type : Progressive
Compression mode : Lossy
Bits/(Pixel*Frame) : 0.251
Stream size : 940 MiB (81%)
Writing library : XviD 64

Audio
ID : 1
Format : AC-3
Format/Info : Audio Coding 3
Mode extension : CM (complete main)
Format settings, Endianness : Big
Codec ID : 2000
Duration : 1h 15mn
Bit rate mode : Constant
Bit rate : 384 Kbps
Channel(s) : 6 channels
Channel positions : Front: L C R, Side: L R, LFE
Sampling rate : 48.0 KHz
Bit depth : 16 bits
Compression mode : Lossy
Stream size : 208 MiB (18%)
Alignment : Aligned on interleaves
Interleave, duration : 42 ms (1.00 video frame)
Interleave, preload duration : 512 ms

General
Unique ID : 83030494166767673137321156290981814136 (0x3E77176CA127799D8884101C177E5F78)
Complete name : Batman.Assault.on.Arkham.2014.720p.WEB-DL.x264.AC3-EVO.mkv
Format : Matroska
Format version : Version 2
File size : 1.58 GiB
Duration : 1h 15mn
Overall bit rate : 2 989 Kbps
Writing application : HandBrake 0.9.9
Writing library : libmkv 0.6.5

Video
ID : 1
Format : AVC
Format/Info : Advanced Video Codec
Format profile : [email protected]
Format settings, CABAC : Yes
Format settings, ReFrames : 4 frames
Codec ID : V_MPEG4/ISO/AVC
Duration : 1h 15mn
Bit rate : 2 600 Kbps
Width : 1 280 pixels
Height : 720 pixels
Display aspect ratio : 16:9
Frame rate mode : Constant
Frame rate : 23.976 fps
Color space : YUV
Chroma subsampling : 4:2:0
Bit depth : 8 bits
Scan type : Progressive
Bits/(Pixel*Frame) : 0.118
Stream size : 1.35 GiB (85%)
Writing library : x264 core 130 r2273 b3065e6
Encoding settings : cabac=1 / ref=1 / deblock=1:0:0 / analyse=0x3:0x113 / me=hex / subme=2 / psy=1 / psy_rd=1.00:0.00 / mixed_ref=0 / me_range=16 / chroma_me=1 / trellis=0 / 8x8dct=1 / cqm=0 / deadzone=21,11 / fast_pskip=1 / chroma_qp_offset=0 / threads=6 / lookahead_threads=2 / sliced_threads=0 / nr=0 / decimate=1 / interlaced=0 / bluray_compat=0 / constrained_intra=0 / bframes=3 / b_pyramid=2 / b_adapt=1 / b_bias=0 / direct=1 / weightb=1 / open_gop=0 / weightp=1 / keyint=240 / keyint_min=24 / scenecut=40 / intra_refresh=0 / rc_lookahead=10 / rc=abr / mbtree=1 / bitrate=2600 / ratetol=1.0 / qcomp=0.60 / qpmin=0 / qpmax=69 / qpstep=4 / vbv_maxrate=62500 / vbv_bufsize=78125 / nal_hrd=none / ip_ratio=1.40 / aq=1:1.00
Language : English
Default : Yes
Forced : No
Color primaries : BT.709
Transfer characteristics : BT.709
Matrix coefficients : BT.709

Audio
ID : 2
Format : AC-3
Format/Info : Audio Coding 3
Mode extension : CM (complete main)
Format settings, Endianness : Big
Codec ID : A_AC3
Duration : 1h 15mn
Bit rate mode : Constant
Bit rate : 384 Kbps
Channel(s) : 6 channels
Channel positions : Front: L C R, Side: L R, LFE
Sampling rate : 48.0 KHz
Bit depth : 16 bits
Compression mode : Lossy
Stream size : 208 MiB (13%)
Language : English
Default : Yes
Forced : No
screenshots - HDRip:

http://i67.fastpic.ru/big/2014/0730/d9/661822fb59e737eadf5a52955f9c44d9.jpghttp://i68.fastpic.ru/big/2014/0730/03/eabc183d0b80a0bab0f7dd00eb1a2403.jpghttp://i65.fastpic.ru/big/2014/0730/e8/f2757c61fe6fe2eed40e8f027a2f6ce8.jpgscreenshots - WEB-DL 720p:

http://i66.fastpic.ru/big/2014/0730/ee/cd385077f2a7f2a29346dc2cefc521ee.jpghttp://i67.fastpic.ru/big/2014/0730/a0/9c61fc2817811a8215f564dee375f3a0.jpghttp://i68.fastpic.ru/big/2014/0730/9a/645fa4f649457be395eaa310f3ca9f9a.jpgNo more mirrors!

DOWNLOAD LINKS:
Buy Premium From My Links To Get Resumable Support,Max Speed & Support Me

http://i.imgur.com/vSEg4Iy.png
http://www.uploadable.ch/file/dcqaX4X8ewGY/mod4s.Batman.Assault.on.Arkham.2014.720p.WEBDL.x264.AC3EVO.part1.rar
http://www.uploadable.ch/file/xcYdTUT8dG2g/mod4s.Batman.Assault.on.Arkham.2014.720p.WEBDL.x264.AC3EVO.part1.rev
http://www.uploadable.ch/file/wapcpd3dFPFp/mod4s.Batman.Assault.on.Arkham.2014.720p.WEBDL.x264.AC3EVO.part2.rar
http://www.uploadable.ch/file/3crxsSaMwyWu/mod4s.Batman.Assault.on.Arkham.2014.720p.WEBDL.x264.AC3EVO.part3.rar
http://www.uploadable.ch/file/r45K3NdEAK78/mod4s.Batman.Assault.on.Arkham.2014.720p.WEBDL.x264.AC3EVO.part4.rar
http://www.uploadable.ch/file/Gv4pv8CWjxuS/mod4s.Batman.Assault.on.Arkham.2014.720p.WEBDL.x264.AC3EVO.part5.rar
http://www.uploadable.ch/file/bK3292PYFApZ/mod4s.Batman.Assault.on.Arkham.2014.HDRip.XviD.AC3EVO.part1.rar
http://www.uploadable.ch/file/N3j6W3J5MwrH/mod4s.Batman.Assault.on.Arkham.2014.HDRip.XviD.AC3EVO.part1.rev
http://www.uploadable.ch/file/pzGb8EqH4UdE/mod4s.Batman.Assault.on.Arkham.2014.HDRip.XviD.AC3EVO.part2.rar
http://www.uploadable.ch/file/TZ4Mb4U7J42b/mod4s.Batman.Assault.on.Arkham.2014.HDRip.XviD.AC3EVO.part3.rar

http://rapidgator.net/images/pics/170_1.gif
http://rapidgator.net/file/250f66f0ae6a42f9fa462899b6caf4b1/mod4s.Batman.Assault.on.Arkham.2014.720p.WEBDL.x264.AC3EVO.part1.rar.html
http://rapidgator.net/file/49c3fed1a32270c19cdec1fc6db12281/mod4s.Batman.Assault.on.Arkham.2014.720p.WEBDL.x264.AC3EVO.part1.rev.html
http://rapidgator.net/file/d7c4a88427986232930a86470fc8686b/mod4s.Batman.Assault.on.Arkham.2014.720p.WEBDL.x264.AC3EVO.part2.rar.html
http://rapidgator.net/file/6c7abcb21737d490b7f9ce5ea6f41544/mod4s.Batman.Assault.on.Arkham.2014.720p.WEBDL.x264.AC3EVO.part3.rar.html
http://rapidgator.net/file/0aaf9ef5d402da0bf1ce6ac9a72cedcc/mod4s.Batman.Assault.on.Arkham.2014.720p.WEBDL.x264.AC3EVO.part4.rar.html
http://rapidgator.net/file/d29b516eddc2f16c877f1eb507a3508a/mod4s.Batman.Assault.on.Arkham.2014.720p.WEBDL.x264.AC3EVO.part5.rar.html
http://rapidgator.net/file/2fa3e20459896a2446df23af2f236c04/mod4s.Batman.Assault.on.Arkham.2014.HDRip.XviD.AC3EVO.part1.rar.html
http://rapidgator.net/file/9713d1d2256e0b0854c339c0f4b9c995/mod4s.Batman.Assault.on.Arkham.2014.HDRip.XviD.AC3EVO.part1.rev.html
http://rapidgator.net/file/fc7256cc35d347e3e6b47a9c7fb0c9b7/mod4s.Batman.Assault.on.Arkham.2014.HDRip.XviD.AC3EVO.part2.rar.html
http://rapidgator.net/file/f4fc2e101cfdf1b735fd3028515d35a9/mod4s.Batman.Assault.on.Arkham.2014.HDRip.XviD.AC3EVO.part3.rar.html

http://uploaded.net/img/public/88x31.jpg
http://uploaded.net/file/r07shlh8/mod4s.Batman.Assault.on.Arkham.2014.720p.WEBDL.x264.AC3EVO.part1.rar
http://uploaded.net/file/yqh0l4g0/mod4s.Batman.Assault.on.Arkham.2014.720p.WEBDL.x264.AC3EVO.part1.rev
http://uploaded.net/file/vloj48z6/mod4s.Batman.Assault.on.Arkham.2014.720p.WEBDL.x264.AC3EVO.part2.rar
http://uploaded.net/file/xqujn4vi/mod4s.Batman.Assault.on.Arkham.2014.720p.WEBDL.x264.AC3EVO.part3.rar
http://uploaded.net/file/u2hm03k9/mod4s.Batman.Assault.on.Arkham.2014.720p.WEBDL.x264.AC3EVO.part4.rar
http://uploaded.net/file/e0qmw0bg/mod4s.Batman.Assault.on.Arkham.2014.720p.WEBDL.x264.AC3EVO.part5.rar
http://uploaded.net/file/t29kshb8/mod4s.Batman.Assault.on.Arkham.2014.HDRip.XviD.AC3EVO.part1.rar
http://uploaded.net/file/u1mdqzm9/mod4s.Batman.Assault.on.Arkham.2014.HDRip.XviD.AC3EVO.part1.rev
http://uploaded.net/file/gkha9k5x/mod4s.Batman.Assault.on.Arkham.2014.HDRip.XviD.AC3EVO.part2.rar
http://uploaded.net/file/qj2d6o9t/mod4s.Batman.Assault.on.Arkham.2014.HDRip.XviD.AC3EVO.part3.rar

http://i.imgur.com/8tqh9T9.png
https://www.oboom.com/C16KXF3G/mod4s.Batman.Assault.on.Arkham.2014.720p.WEBDL.x264.AC3EVO.part1.rar
https://www.oboom.com/GY379116/mod4s.Batman.Assault.on.Arkham.2014.720p.WEBDL.x264.AC3EVO.part1.rev
https://www.oboom.com/CAI5L84G/mod4s.Batman.Assault.on.Arkham.2014.720p.WEBDL.x264.AC3EVO.part2.rar
https://www.oboom.com/LZ4I5BV4/mod4s.Batman.Assault.on.Arkham.2014.720p.WEBDL.x264.AC3EVO.part3.rar
https://www.oboom.com/7H63T89O/mod4s.Batman.Assault.on.Arkham.2014.720p.WEBDL.x264.AC3EVO.part4.rar
https://www.oboom.com/5Y8EZHYO/mod4s.Batman.Assault.on.Arkham.2014.720p.WEBDL.x264.AC3EVO.part5.rar
https://www.oboom.com/Y91S0XJS/mod4s.Batman.Assault.on.Arkham.2014.HDRip.XviD.AC3EVO.part1.rar
https://www.oboom.com/PPBDEFBQ/mod4s.Batman.Assault.on.Arkham.2014.HDRip.XviD.AC3EVO.part1.rev
https://www.oboom.com/YPQ54N2A/mod4s.Batman.Assault.on.Arkham.2014.HDRip.XviD.AC3EVO.part2.rar
https://www.oboom.com/QY3AUO2L/mod4s.Batman.Assault.on.Arkham.2014.HDRip.XviD.AC3EVO.part3.rar

Links are Interchangeable - No Password - Single Extraction
Direct Download

Tags: Arkham, Assault, Batman

Comments
Name:*
E-Mail:*
Add Comments:
Enter Code: *