Download Now

Three Extremes Combo Pack 2002 2004 English Subtitles DVDRip Xvid LKRG

Three Extremes Combo Pack 2002 2004 English Subtitles DVDRip Xvid LKRG | 2.25 GB

File: 3EXTRM_LKRG.avi
Size: 1051684864 bytes (1002.96 MiB), duration: 02:06:24, avg.bitrate: 1109 kb/s
Audio: ac3, 48000 Hz, stereo, 224 kb/s
Video: mpeg4, yuv420p, 720x480, 23.98 fps(r)
File: 3EXTRMII_LKRG.avi
Size: 1360310272 bytes (1.27 GiB), duration: 02:08:53, avg.bitrate: 1407 kb/s
Audio: ac3, 48000 Hz, stereo, 224 kb/s
Video: mpeg4, yuv420p, 720x480, 23.98 fps(r)
http://www.imdb.com/title/tt0324242/

Memories: A woman wakes up on a street without memory. A husband cannot remember why his wife left him. The woman wanders the streets trying to contact the only phone number she has on her. The husband see"s her ghost in his apartment and discovers her mutilated body in a large bag in his home (Korea). The Wheel: Extravagant cursed puppets cause fires, deaths, physical pain and a little girl to be possessed (Thailand). Going Home: A father goes in search of his missing son and is abducted by a strange man. The strangers wife has died of cancer three years prior but he keeps her in his apartment under the impression she will "wake up" (Hong Kong).
Title:Saam gaang
Year:2002
Rating:6.3
Genre:Horror / Mystery
Director:Peter Chan / Kim Jee-woon
Cast:Hye-su Kim / Bo-seok Jeong / Suwinit Panjamawat / Leon Lai / Eric Tsang / Eugenia Yuan / Ting-Fung Li / Kanyavae Chatiawaipreacha / Jeong-won Choi / Pornchai Chuvanon / Anusak Intasorn / Jung-Won Jang / Pattama Jangjarut / Sung-Keun Jee / Savika Kanchanamas


Three Extremes Combo Pack 2002 2004 English Subtitles DVDRip Xvid LKRG
Three Extremes Combo Pack 2002 2004 English Subtitles DVDRip Xvid LKRG


NFo Notes

Three Extremes II 2002
"Saam gaang" (original title)
Runtime ..........: 2h 8mn
File Size ........: 1.27 GB
Resolution .......: 720 x 480
http://www.imdb.com/title/tt0324242/?ref_=fn_al_tt_1
Genre ............: Horror,Mystery
Language .........: Cantonese,Japanese,Korean,Mandarin
Subtitles ........: English
Complete name : Three Extremes II 2002 DVDRip English Subtitles Xvid LKRGEXTRM2_LKRG.avi
Format : AVI
Format/Info : Audio Video Interleave
File size : 1.27 GiB
Duration : 2h 8mn
Overall bit rate : 1 407 Kbps
Writing application : VirtualDubMod 1.5.10.2 (build 2540/release)
Writing library : VirtualDubMod build 2540/release
Video
ID : 0
Format : MPEG-4 Visual
Format profile : Advanced [email protected]
Format settings, BVOP : 2
Format settings, QPel : No
Format settings, GMC : No warppoints
Format settings, Matrix : Default (H.263)
Muxing mode : Packed bitstream
Codec ID : XVID
Codec ID/Hint : XviD
Duration : 2h 8mn
Bit rate : 1 174 Kbps
Width : 720 pixels
Height : 480 pixels
Display aspect ratio : 16:9
Frame rate : 23.976 fps
Standard : NTSC
Color space : YUV
Chroma subsampling : 4:2:0
Bit depth : 8 bits
Scan type : Progressive
Compression mode : Lossy
Bits/(Pixel*Frame) : 0.142
Stream size : 1.06 GiB (83%)
Writing library : XviD 1.2.1 (UTC 2008-12-04)
Audio
ID : 1
Format : AC-3
Format/Info : Audio Coding 3
Mode extension : CM (complete main)
Format settings, Endianness : Big
Codec ID : 2000
Duration : 2h 8mn
Bit rate mode : Constant
Bit rate : 224 Kbps
Channel(s) : 2 channels
Channel positions : Front: L R
Sampling rate : 48.0 KHz
Bit depth : 16 bits
Compression mode : Lossy
Stream size : 206 MiB (16%)
Alignment : Split accross interleaves
Interleave, duration : 42 ms (1.00 video frame)
Interleave, preload duration : 500 ms
Three Extremes 2004
"Saam gaang yi" (original title)
Runtime ..........: 2h 6mn
File Size ........: 1003 MB
Resolution .......: 720 x 480
http://www.imdb.com/title/tt0420251/?ref_=nv_sr_1
Genre ............: Horror
Language .........: Korean,Mandarin,Thai,Cantonese
Subtitles ........: English
Complete name : Three Extremes 2004 DVDRip English Subtitles Xvid LKRGEXTRM_LKRG.avi
Format : AVI
Format/Info : Audio Video Interleave
File size : 1 003 MiB
Duration : 2h 6mn
Overall bit rate : 1 109 Kbps
Writing application : VirtualDubMod 1.5.10.2 (build 2540/release)
Writing library : VirtualDubMod build 2540/release
Video
ID : 0
Format : MPEG-4 Visual
Format profile : Advanced [email protected]
Format settings, BVOP : 2
Format settings, QPel : No
Format settings, GMC : No warppoints
Format settings, Matrix : Default (H.263)
Muxing mode : Packed bitstream
Codec ID : XVID
Codec ID/Hint : XviD
Duration : 2h 6mn
Bit rate : 876 Kbps
Width : 720 pixels
Height : 480 pixels
Display aspect ratio : 16:9
Frame rate : 23.976 fps
Standard : NTSC
Color space : YUV
Chroma subsampling : 4:2:0
Bit depth : 8 bits
Scan type : Progressive
Compression mode : Lossy
Bits/(Pixel*Frame) : 0.106
Stream size : 792 MiB (79%)
Writing library : XviD 1.2.1 (UTC 2008-12-04)
Audio
ID : 1
Format : AC-3
Format/Info : Audio Coding 3
Mode extension : CM (complete main)
Format settings, Endianness : Big
Codec ID : 2000
Duration : 2h 6mn
Bit rate mode : Constant
Bit rate : 224 Kbps
Channel(s) : 2 channels
Channel positions : Front: L R
Sampling rate : 48.0 KHz
Bit depth : 16 bits
Compression mode : Lossy
Stream size : 203 MiB (20%)
Alignment : Split accross interleaves
Interleave, duration : 42 ms (1.00 video frame)
Interleave, preload duration : 500 m
Enjoy From LKRG
Sharing is Caring
Three Extremes II 2002
"Memories"
A man goes to a psychiatrist to try to remember what happened the day his
wife disappeared from his life. Meanwhile, his wife wakes up and finds
herself lying on a deserted road, having no idea how she got there in the
first place.
"The Wheel"
A puppet master lies dying in his bed. This is no ordinary death bed, as
screams of terror erupt from him, surrounded by ghosts, which await his
death. We later find out that his death was a result of a curse - a curse
brought about by the improper ownership of ancient Thai puppets. The
puppets belong to their proper master, and whosoever claims these puppets
will suffer a horrible death.
"Going Home"
While searching for his missing son, a cop, Wai, finds himself detained
by his neighbor Yu, a Chinese physician, in his apartment. Yu has been
tending to the body of his dead wife for three years,
Three Extremes 2004
"Dumplings"
Dumplings deals with an aging actress wishing to reclaim her youth goes
to a woman who makes dumplings that supposedly have regenerative properties.
However, they contain a gruesome secret ingredient.
"Cut"
A film which tells the story of a successful film director and his wife
who are kidnapped by an extra from his own films, who forces the director
to play his sadistic games. If he fails, his wife"s fingers will be chopped
off one by one every five minutes.
"Box"
A film about a softly spoken young woman who has a bizarre recurring nightmare
about being buried in a box in the snow. Searching for her long lost sister,
she realizes her dreams and reality may possibly be connected.
Greets/Thanks
ETRG,CRYS,LKRG,INFERNO,3Li,Unevano,BION,Feel-Free,Hive-CM8,
FraMeSToR,PrisM,Noir,Kingdom,TWiZTED,SecretMyth,Toxic,Sic,FXG,EMBER,
ViP3R,DiVERSiTY,FLAWL3SS,jtr,THC,420DEMONS,TiCTaC,Kempas
And to all the other p2p groups past and present
Let the Legend Killing Live On

Download here:

Mirror 1:

Mirror 2:
Direct Download

Tags: Extremes, English, Subtitles, DVDRip

Comments
Name:*
E-Mail:*
Add Comments:
Enter Code: *