I Am I (2013)

Category: Movie
Download Now

I Am I (2013)

I Am I (2013)

WEB-DL 720p | 1280x686 | MKV/x264 @ 3556 Kbps | 87mn | Audio: English AC3 384 kbps, 6 channels | Subs: None | 2.46 GB
Genre: Drama
http://www.imdb.com/title/tt1825806/

I AM I is the story of a young woman, Rachael, who meets the father she never knew, Gene, at her mother"s funeral. She discovers that her father is completely delusional and believes her to be her dead mother. After Rachael visits Gene in an assisted living home, she learns that he suffers from a disease called Korsakov"s Syndrome, a form of retrograde amnesia and that her mother had placed him in this facility for treatment a year earlier.
He does not remember anything past the age of thirty-three, and believes that he is still a young man. Unable to convince him of who she really is, Rachael decides to go along with her father"s delusions by pretending to be her mother and discovers that under this guise, she and Gene can have "normal" conversations. Before long, Rachael is visiting Gene everyday, finding new ways to bring elements from his past into their present relationship. What began as a search for understanding has become romantic and joyful, but it can"t go on forever.

Video
ID : 1
Format : AVC
Format/Info : Advanced Video Codec
Format profile : [email protected]
/* */
Format settings, CABAC : Yes
Format settings, ReFrames : 3 frames
Format settings, GOP : M=4, N=16
Codec ID : V_MPEG4/ISO/AVC
Duration : 1h 27mn
Bit rate mode : Variable
Bit rate : 3 556 Kbps
Maximum bit rate : 40.0 Mbps
Width : 1 280 pixels
Height : 688 pixels
Display aspect ratio : 1.860
Frame rate : 23.976 fps
Color space : YUV
Chroma subsampling : 4:2:0
Bit depth : 8 bits
Scan type : Progressive
Bits/(Pixel*Frame) : 0.168
Stream size : 2.17 GiB (88%)
Writing library : x264 core 142 r2431 ac76440
Encoding settings : cabac=1 / ref=4 / deblock=1:0:0 / analyse=0x3:0x113 / me=hex / subme=7 / psy=1 / psy_rd=1.00:0.15 / mixed_ref=1 / me_range=16 / chroma_me=1 / trellis=1 / 8x8dct=1 / cqm=0 / deadzone=21,11 / fast_pskip=1 / chroma_qp_offset=-3 / threads=10 / lookahead_threads=1 / sliced_threads=0 / slices=4 / nr=0 / decimate=1 / interlaced=0 / bluray_compat=0 / constrained_intra=0 / bframes=3 / b_pyramid=1 / b_adapt=1 / b_bias=0 / direct=1 / weightb=1 / open_gop=0 / weightp=0 / keyint=23 / keyint_min=1 / scenecut=40 / intra_refresh=0 / rc_lookahead=23 / rc=crf / mbtree=1 / crf=17.0 / qcomp=0.60 / qpmin=10 / qpmax=51 / qpstep=4 / vbv_maxrate=40000 / vbv_bufsize=30000 / crf_max=0.0 / nal_hrd=vbr / filler=0 / ip_ratio=1.40 / aq=1:1.00
Language : English
Audio
ID : 2
Format : AC-3
Format/Info : Audio Coding 3
Mode extension : CM (complete main)
Codec ID : A_AC3
Duration : 1h 27mn
Bit rate mode : Constant
Bit rate : 384 Kbps
Channel(s) : 6 channels
Channel positions : Front: L C R, Side: L R, LFE
Sampling rate : 48.0 KHz
Bit depth : 16 bits
Compression mode : Lossy
Stream size : 240 MiB (10%)
Language : English
Text
ID : 3
Format : UTF-8
Codec ID : S_TEXT/UTF8
Codec ID/Info : UTF-8 Plain Text
Menu
00:00:00.000 : en:Chapter 1
00:09:04.000 : en:Chapter 2
00:20:44.000 : en:Chapter 3
00:32:30.000 : en:Chapter 4
00:39:38.000 : en:Chapter 5
00:49:52.000 : en:Chapter 6
01:01:26.000 : en:Chapter 7
01:10:18.000 : en:Chapter 8
01:20:35.000 : en:Chapter 9
I Am I (2013)

Download here:

Mirror 1:

Mirror 2:
Direct Download
Comments
Name:*
E-Mail:*
Add Comments:
Enter Code: *