Download Now

Sugarhouse 2007 BRRip AC3 x264 - MiLLENiUM

Sugarhouse 2007 BRRip AC3 x264 - MiLLENiUM | 1.44 GB

File: Sugarhouse 2007 BRRip AC3 x264 - MiLLENiUM.mkv
Size: 1523004544 bytes (1.42 GiB), duration: 01:30:26, avg.bitrate: 2245 kb/s
Audio: ac3, 48000 Hz, 5:1 (eng)
Video: h264, yuv420p, 720x400, 25.00 fps(r)
http://www.imdb.com/title/tt0847526/

Upper middle class employee Tom ventures into a derelict squatter building to buy a gun from D, a cocky but stupid, homeless crack-junkie, who meanly tries to extort above the agreed price. As D stole the gun from his macho dealer Hoodwink, the bully is on the warpath to get it back by beating up all his pushers in turn and order them to get it, anyhow. Tom's attempts to reason with Hoodwink or buy off his wrath only get him seriously abused. He and D gradually get to know what makes the other tick and digress for reasonable life.

Title:Sugarhouse
Year:2007
Rating:6.0
Genre:Crime / Thriller
Director:Gary Love
Cast:Steven Mackintosh / Ashley Walters / Andy Serkis / Adam Deacon / Ted Nygh / Tolga Safer / Ade / Tracy Whitwell / Stephen Gressieux / Sharnie Hobbs / Steven Robertson / Sharon D. Clarke / Nicole Kent / Nathan Kent / Flor Kent

Sugarhouse 2007 BRRip AC3 x264 - MiLLENiUM


NFo Notes
Sugarhouse 2007 BRRip AC3 x264 - MiLLENiUM
Sugarhouse 2007 BRRip AC3 x264 - MiLLENiUM
General
Source...............: BluRay 1080p [THANKS]
http://www.imdb.com/title/tt0847526/
Sample Included......: yes
General
Complete name : Sugarhouse 2007 BRRip AC3 x264 - MiLLENiUM.mkv
Format : Matroska
Format version : Version 2
File size : 1.42 GiB
Duration : 1h 30mn
Overall bit rate mode : Variable
Overall bit rate : 2 245 Kbps
Encoded date : UTC 2014-05-23 18:19:55
Writing application : mkvmerge v6.9.1 ('Blue Panther') 32bit built on Apr 18 2014 18:15:44
Writing library : libebml v1.3.0 + libmatroska v1.4.1
Video
ID : 1
Format : AVC
Format/Info : Advanced Video Codec
Format profile : /*
Format settings, CABAC : Yes
Format settings, ReFrames : 3 frames
Codec ID : V_MPEG4/ISO/AVC
Duration : 1h 30mn
Bit rate mode : Variable
Bit rate : 1 753 Kbps
Maximum bit rate : 40.0 Mbps
Width : 720 pixels
Height : 400 pixels
Display aspect ratio : 16:9
Frame rate mode : Constant
Frame rate : 25.000 fps
Color space : YUV
Chroma subsampling : 4:2:0
Bit depth : 8 bits
Scan type : Progressive
Bits/(Pixel*Frame) : 0.243
Stream size : 1.11 GiB (78%)
Writing library : x264 core 142 r2431 ac76440
Audio
ID : 2
Format : AC-3
Format/Info : Audio Coding 3
Mode extension : CM (complete main)
Format settings, Endianness : Big
Codec ID : A_AC3
Duration : 1h 30mn
Bit rate mode : Constant
Bit rate : 448 Kbps
Channel(s) : 6 channels
Channel positions : Front: L C R, Side: L R, LFE
Sampling rate : 48.0 KHz
Bit depth : 16 bits
Compression mode : Lossy
Stream size : 290 MiB (20%)
Language : English
Default : Yes
Forced : No
Description
Upper middle class employee Tom ventures into a derelict squatter building to buy a gun from D, a cocky but stupid, homeless crack-junkie, who meanly tries to extort above the agreed price. As D stole the gun from his macho dealer Hoodwink, the bully is on the warpath to get it back by beating up all his pushers in turn and order them to get it, anyhow. Tom's attempts to reason with Hoodwink or buy off his wrath only get him seriously abused. He and D gradually get to know what makes the other tick and digress for reasonable life.
Screenshots
Sugarhouse 2007 BRRip AC3 x264 - MiLLENiUM
Sugarhouse 2007 BRRip AC3 x264 - MiLLENiUM
Sugarhouse 2007 BRRip AC3 x264 - MiLLENiUM
Sugarhouse 2007 BRRip AC3 x264 - MiLLENiUM
Sugarhouse 2007 BRRip AC3 x264 - MiLLENiUM
Sugarhouse 2007 BRRip AC3 x264 - MiLLENiUM
Sugarhouse 2007 BRRip AC3 x264 - MiLLENiUM

Free Link Download uploadable.ch
http://www.uploadable.ch/file/Kucxw5acUA5G...ENiUM.part1.rar
http://www.uploadable.ch/file/tCSNDBGJ5Ms9...ENiUM.part2.rar

Buy Premium Rapidgator Download Max Speed
http://rapidgator.net/file/1c0b85cc8d5554b....part1.rar.html
http://rapidgator.net/file/35ef2afd1add4c0....part2.rar.html
Direct Download

Tags: MiLLENiUM, Sugarhouse

Comments
Name:*
E-Mail:*
Add Comments:
Enter Code: *