Download Now

[MD045] The Mummy Resurrected (2014) DVDRip x264 AC3-MiLLENiUM
-----------------------------------------------------------
No CRC ERRORS [RAR - 900MB Part + 10% recovery.][File Size: 1.07 GiB]
-----------------------------------------------------------
The Mummy Resurrected (2014) DVDRip x264 AC3-MiLLENiUM


INFO:
General
Complete name                            : The Mummy Resurrected 2014 DVDRip x264 AC3-MiLLENiUM.mkv
Format                                   : Matroska
Format version                           : Version 2
File size                                : 1.05 GiB
Duration                                 : 1h 20mn
Overall bit rate mode                    : Variable
Overall bit rate                         : 1 872 Kbps
Encoded date                             : UTC 2014-05-13 18:10:41
Writing application                      : mkvmerge v6.9.1 ('Blue Panther') 32bit built on Apr 18 2014 18:15:44
Writing library                          : libebml v1.3.0 + libmatroska v1.4.1

Video
ID                                       : 1
Format                                   : AVC
Format/Info                              : Advanced Video Codec
Format profile                           : [email protected]
Format settings, CABAC                   : Yes
Format settings, ReFrames                : 3 frames
Codec ID                                 : V_MPEG4/ISO/AVC
Duration                                 : 1h 20mn
Bit rate mode                            : Variable
Bit rate                                 : 1 387 Kbps
Maximum bit rate                         : 40.0 Mbps
Width                                    : 720 pixels
Height                                   : 400 pixels
Display aspect ratio                     : 16:9
Frame rate mode                          : Constant
Frame rate                               : 23.976 fps
Color space                              : YUV
Chroma subsampling                       : 4:2:0
Bit depth                                : 8 bits
Scan type                                : Progressive
Bits/(Pixel*Frame)                       : 0.201
Stream size                              : 798 MiB (74%)
Writing library                          : x264 core 142 r2409 d6b4e63

Audio
ID                                       : 2
Format                                   : AC-3
Format/Info                              : Audio Coding 3
Mode extension                           : CM (complete main)
Format settings, Endianness              : Big
Codec ID                                 : A_AC3
Duration                                 : 1h 20mn
Bit rate mode                            : Constant
Bit rate                                 : 448 Kbps
Channel(s)                               : 6 channels
Channel positions                        : Front: L C R, Side: L R, LFE
Sampling rate                            : 48.0 KHz
Bit depth                                : 16 bits
Compression mode                         : Lossy
Stream size                              : 258 MiB (24%)
Language                                 : English
Default                                  : Yes
Forced                                   : No


Plot A team of archaeologists discover an ancient mummy, unleashing a deadly curse from its eternal tomb.

IMDB:
http://www.imdb.com/title/tt3382842/


SCREENSHOT:

The Mummy Resurrected (2014) DVDRip x264 AC3-MiLLENiUM
The Mummy Resurrected (2014) DVDRip x264 AC3-MiLLENiUM
The Mummy Resurrected (2014) DVDRip x264 AC3-MiLLENiUM


The Mummy Resurrected (2014) DVDRip x264 AC3-MiLLENiUM
OTHERs

==>OBOOM<==
https://www.oboom.com/Q7DV0HGK/MD045_The.Mummy.Resurrected.2014.DVDRip.part1.rar
https://www.oboom.com/A6KHTRNB/MD045_The.Mummy.Resurrected.2014.DVDRip.part2.rar
==>UPLOADABLE<==
http://www.uploadable.ch/file/n3stz3dCkMjS/MD045_The.Mummy.Resurrected.2014.DVDRip.part1.rar
http://www.uploadable.ch/file/2rxGBXD7TM2x/MD045_The.Mummy.Resurrected.2014.DVDRip.part2.rar
==>UPLOADDED<==
http://uploaded.net/file/sj04ewxr/MD045_The.Mummy.Resurrected.2014.DVDRip.part1.rar
http://uploaded.net/file/tm1wt7f2/MD045_The.Mummy.Resurrected.2014.DVDRip.part2.rar
==>RAPIDGATOR<==
http://rapidgator.net/file/857b34f11cab3fdf5cfe8c601765704f/MD045_The.Mummy.Resurrected.2014.DVDRip.part1.rar.html
http://rapidgator.net/file/3a8e832ecd1f33b884aa13758c988ac6/MD045_The.Mummy.Resurrected.2014.DVDRip.part2.rar.html


==>SAFELINKING<==

https://safelinking.net/p/60bc3f1f64
Direct Download

Tags: Resurrected, DVDRip, MiLLENiUM

Comments
Name:*
E-Mail:*
Add Comments:
Enter Code: *