Download Now

Automate Image Editing in Adobe Photoshop CS5: Learn by Video [repost]

Automate Image Editing in Adobe Photoshop CS5: Learn by Video
WEBRip | MP4 | English | 1024 x 576 | AVC ~757 kbps | 15 fps
AAC ~128 Kbps | 44.1 KHz | 1 channel | 2h 25mn | 718.6 MB
Genre: eLearning Video / Photographing, Adobe Photoshop

You might not think that automation and creativity go hand in hand, but sometimes they do. By automating tasks where appropriate in Photoshop, you can streamline your workflow and free up time to work on the artistic aspects of photography. In this workshop from Photoshop expert Tim Grey, you'll start by learning core automation concepts and using basic automation tools to process multiple images quickly and easily.

Next, you'll explore actions, an incredibly powerful tool for processing one or more images in a consistent way. You'll see how actions let you apply creative effects consistently to your images and prepare images for sharing. Finally, you'll work through a variety of real-world projects that reinforce what you've learned and demonstrate some of the many ways you can employ automation in your own workflow. This Learn by Video workshop is published in partnership with Peachpit Press.

Topics include:

Automation Concepts
* What Is Automation?
* To Automate or Not to Automate?
* Methods of Automation

Batch Processing Tools
* Adding Metadata at Download
* Batch Renaming
* Using Metadata Presets
* Batch Raw Processing
* Using the Image Processor

Getting Started with Actions
* The Actions Panel
* Sets vs. Actions
* Action Panel Options
* Reading an Action
* Standard Default Actions
* Adding More Default Actions
* Moving Actions Between Sets
* Deleting Actions and Sets

Creating and Modifying Actions
* Recording a Simple Action
* Changing Action and Action Set Options
* Record Again
* Modifying an Action
* Using Action Stops
* Triggering a Dialog Box
* Creating an Action for the Image Processor
* Creating an Action for Batch Processing

Using Actions
* Playing an Action
* Batch Processing
* Creating and Using a Droplet
* Saving and Loading Actions

Actions Projects
* The Workflow Action
* Adding Copyright Text
* Automation as Memory Aid


MediaInfo:


General
Complete name : v2b-AutoEditPS5-03_03.mp4
Format : MPEG-4
Format profile : Base Media
Codec ID : isom
File size : 29.6 MiB
Duration : 4mn 38s
Overall bit rate : 890 Kbps
Writing application : Lavf53.12.0

Video
ID : 1
Format : AVC
Format/Info : Advanced Video Codec
Format profile : [email protected]
Format settings, CABAC : Yes
Format settings, ReFrames : 4 frames
Format settings, GOP : M=4, N=15
Codec ID : avc1
Codec ID/Info : Advanced Video Coding
Duration : 4mn 38s
Bit rate : 757 Kbps
Width : 1 024 pixels
Height : 576 pixels
Display aspect ratio : 16:9
Frame rate mode : Constant
Frame rate : 15.000 fps
Color space : YUV
Chroma subsampling : 4:2:0
Bit depth : 8 bits
Scan type : Progressive
Bits/(Pixel*Frame) : 0.086
Stream size : 25.2 MiB (85%)
Writing library : x264 core 116 r2074 2641b9e
Encoding settings : cabac=1 / ref=3 / deblock=1:0:0 / analyse=0x3:0x113 / me=hex / subme=7 / psy=1 / psy_rd=1.00:0.00 / mixed_ref=1 / me_range=16 / chroma_me=1 / trellis=1 / 8x8dct=1 / cqm=0 / deadzone=21,11 / fast_pskip=1 / chroma_qp_offset=-2 / threads=12 / sliced_threads=0 / nr=0 / decimate=1 / interlaced=0 / bluray_compat=0 / constrained_intra=0 / bframes=3 / b_pyramid=2 / b_adapt=1 / b_bias=0 / direct=1 / weightb=1 / open_gop=0 / weightp=2 / keyint=15 / keyint_min=1 / scenecut=40 / intra_refresh=0 / rc_lookahead=15 / rc=crf / mbtree=1 / crf=23.0 / qcomp=0.60 / qpmin=0 / qpmax=69 / qpstep=4 / ip_ratio=1.40 / aq=1:1.00

Audio
ID : 2
Format : AAC
Format/Info : Advanced Audio Codec
Format profile : LC
Codec ID : 40
Duration : 4mn 38s
Bit rate mode : Constant
Bit rate : 128 Kbps
Channel(s) : 1 channel
Channel positions : Front: C
Sampling rate : 44.1 KHz
Compression mode : Lossy
Delay relative to video : -2ms
Stream size : 4.25 MiB (14%)

Screenshots

Automate Image Editing in Adobe Photoshop CS5: Learn by Video [repost]


Automate Image Editing in Adobe Photoshop CS5: Learn by Video [repost]


Automate Image Editing in Adobe Photoshop CS5: Learn by Video [repost]


Automate Image Editing in Adobe Photoshop CS5: Learn by Video [repost]



Automate Image Editing in Adobe Photoshop CS5: Learn by Video [repost]





Download link:

Buy Premium To Support Me & Get Resumable Support & Max Speed:

rapidgator_net:
http://rapidgator.net/file/88d90b22ad986343f29ab5f74db344fd/b9a4b.Automate.Image.Editing.in.Adobe.Photoshop.CS5.Learn.by.Video.repost.part1.rar.html
http://rapidgator.net/file/75da9f19acbc485fcd4d3e41ad7102a4/b9a4b.Automate.Image.Editing.in.Adobe.Photoshop.CS5.Learn.by.Video.repost.part2.rar.html
http://rapidgator.net/file/3d0e232bd54db8ba09398cd172308c8c/b9a4b.Automate.Image.Editing.in.Adobe.Photoshop.CS5.Learn.by.Video.repost.part3.rar.html
http://rapidgator.net/file/45ad705e0bd80b13b9d3da225b5a26bf/b9a4b.Automate.Image.Editing.in.Adobe.Photoshop.CS5.Learn.by.Video.repost.part4.rar.html
http://rapidgator.net/file/feff05b76c9cd81de121311ce80dcdb9/b9a4b.Automate.Image.Editing.in.Adobe.Photoshop.CS5.Learn.by.Video.repost.part5.rar.html
http://rapidgator.net/file/eeccf5e760a82b4d7f5f4cbbc268ea13/b9a4b.Automate.Image.Editing.in.Adobe.Photoshop.CS5.Learn.by.Video.repost.part6.rar.html
http://rapidgator.net/file/3c8f74c10511059341d8aed7ac571c9a/b9a4b.Automate.Image.Editing.in.Adobe.Photoshop.CS5.Learn.by.Video.repost.part7.rar.html
http://rapidgator.net/file/0b46ecb011e101f9f6467e25d8cb36c1/b9a4b.Automate.Image.Editing.in.Adobe.Photoshop.CS5.Learn.by.Video.repost.part8.rar.html

uploaded_net:
http://uploaded.net/file/mxm4w00h/b9a4b.Automate.Image.Editing.in.Adobe.Photoshop.CS5.Learn.by.Video.repost.part1.rar
http://uploaded.net/file/4s1f8h9v/b9a4b.Automate.Image.Editing.in.Adobe.Photoshop.CS5.Learn.by.Video.repost.part2.rar
http://uploaded.net/file/bhypyv8d/b9a4b.Automate.Image.Editing.in.Adobe.Photoshop.CS5.Learn.by.Video.repost.part3.rar
http://uploaded.net/file/fg7fyfzj/b9a4b.Automate.Image.Editing.in.Adobe.Photoshop.CS5.Learn.by.Video.repost.part4.rar
http://uploaded.net/file/vy5w96fs/b9a4b.Automate.Image.Editing.in.Adobe.Photoshop.CS5.Learn.by.Video.repost.part5.rar
http://uploaded.net/file/3yg11w1z/b9a4b.Automate.Image.Editing.in.Adobe.Photoshop.CS5.Learn.by.Video.repost.part6.rar
http://uploaded.net/file/yvbhjj0y/b9a4b.Automate.Image.Editing.in.Adobe.Photoshop.CS5.Learn.by.Video.repost.part7.rar
http://uploaded.net/file/l3iyjxq5/b9a4b.Automate.Image.Editing.in.Adobe.Photoshop.CS5.Learn.by.Video.repost.part8.rar

bigfile_to:
https://www.bigfile.to/file/V6sDDaWZ4vgB/b9a4b.Automate.Image.Editing.in.Adobe.Photoshop.CS5.Learn.by.Video.repost.part1.rar
https://www.bigfile.to/file/ZF52ATyeUedD/b9a4b.Automate.Image.Editing.in.Adobe.Photoshop.CS5.Learn.by.Video.repost.part2.rar
https://www.bigfile.to/file/CQMj8CZP4XjQ/b9a4b.Automate.Image.Editing.in.Adobe.Photoshop.CS5.Learn.by.Video.repost.part3.rar
https://www.bigfile.to/file/xw3s7RC6Vwk7/b9a4b.Automate.Image.Editing.in.Adobe.Photoshop.CS5.Learn.by.Video.repost.part4.rar
https://www.bigfile.to/file/WTxyj7asyzZH/b9a4b.Automate.Image.Editing.in.Adobe.Photoshop.CS5.Learn.by.Video.repost.part5.rar
https://www.bigfile.to/file/GNAqjVKEZyyb/b9a4b.Automate.Image.Editing.in.Adobe.Photoshop.CS5.Learn.by.Video.repost.part6.rar
https://www.bigfile.to/file/qvSmTzrETnq2/b9a4b.Automate.Image.Editing.in.Adobe.Photoshop.CS5.Learn.by.Video.repost.part7.rar
https://www.bigfile.to/file/tcRnA4czTrQC/b9a4b.Automate.Image.Editing.in.Adobe.Photoshop.CS5.Learn.by.Video.repost.part8.rar


Links are Interchangeable - No Password - Single Extraction
Direct Download

Tags: Automate, Editing, Photoshop, repost

Comments
Name:*
E-Mail:*
Add Comments:
Enter Code: *