Download Now

http://i65.fastpic.ru/big/2014/0809/c9/57c0921fa2e4165f8443487dad765ec9.jpg

Weinberg, Mieczyslaw - Complete Violin Sonatas Vol. 1 (repost)
Classical | EAC: FLAC+Cue+Log | 1 Cd, Covers + Booklet | 458 Mb
Label:Toccata - Date:2010

"Mieczyslaw Weinberg, born in Warsaw in 1919, became a close friend of Shostakovich in Moscow, after fleeing eastwards before the invading Nazis in 1939. His style has much in common with Shostakovich, as these four violin works show: fluent contrapuntal skill, a keen feeling for melody, often inflected with Jewish cantilena, and an acute sense of drama which combines a natural narrative manner with an extraordinary ability to create atmosphere, often from just a handful of notes. Since his death in 1996, his music has increasingly been recognised as some of the finest by any twentieth-century composer."


Tracks:

01. Sonata No. 1 for Violin and Piano, Op. 12 - I. Allegro [0:06:04.00]
02. II. Adagietto [0:06:59.48]
03. III. Allegro [0:08:55.03]
04. Sonata No. 1 for Violin solo, Op. 82 - I. Adagio - Allegro - Adagio [0:05:23.70]
05. II. Andante [0:06:10.40]
06. III. Allegretto [0:03:50.44]
07. IV. Lento [0:03:28.68]
08. V. Presto [0:05:46.37]
09. Sonata No. 4 for Violin and Piano, Op. 39 - I. Adagio - [0:08:57.02]
10. II. Allegro ma non Troppo - Adagio tenuto molto rubato (quasi cadenza) - Adagio primo [0:07:44.61]
11. Sonatina for Violin and Piano, Op. 46 - I. Allegretto [0:04:59.20]
12. II. Lento - Allegro - Tempo primo [0:05:42.00]
13. III. Allegro Moderato - Lento [0:04:04.01]

http://i67.fastpic.ru/big/2014/0809/19/378215fe2da5a4f7770c06e8f08c0519.jpg


Exact Audio Copy V1.0 beta 3 from 29. August 2011

EAC extraction logfile from 5. August 2014, 9:41

Weinberg, Mieczyslaw / Complete Violin Sonatas Vol. 1

Used drive : TSSTcorpCDDVDW SH-S223C Adapter: 2 ID: 1

Read mode : Secure
Utilize accurate stream : Yes
Defeat audio cache : Yes
Make use of C2 pointers : No

Read offset correction : 697
Overread into Lead-In and Lead-Out : No
Fill up missing offset samples with silence : Yes
Delete leading and trailing silent blocks : No
Null samples used in CRC calculations : Yes
Used interface : Native Win32 interface for Win NT & 2000

Used output format : User Defined Encoder
Selected bitrate : 1024 kBit/s
Quality : High
Add ID3 tag : No
Command line compressor : C:Program Files (x86)Exact Audio CopyFLACFLAC.EXE
Additional command line options : -V -0 -T "COMMENT=Ripped by Tapaz9" -T "artist=%artist%" -T "title=%title%" -T "album=%albumtitle%" -T "date=%year%" -T "tracknumber=%tracknr%" -T "genre=%genre%" %source%

TOC of the extracted CD

Track | Start | Length | Start sector | End sector
---------------------------------------------------------
1 | 0:00.00 | 6:04.00 | 0 | 27299
2 | 6:04.00 | 6:59.48 | 27300 | 58772
3 | 13:03.48 | 8:55.03 | 58773 | 98900
4 | 21:58.51 | 5:23.70 | 98901 | 123195
5 | 27:22.46 | 6:10.40 | 123196 | 150985
6 | 33:33.11 | 3:50.44 | 150986 | 168279
7 | 37:23.55 | 3:28.68 | 168280 | 183947
8 | 40:52.48 | 5:46.37 | 183948 | 209934
9 | 46:39.10 | 8:57.02 | 209935 | 250211
10 | 55:36.12 | 7:44.61 | 250212 | 285072
11 | 63:20.73 | 4:59.20 | 285073 | 307517
12 | 68:20.18 | 5:42.00 | 307518 | 333167
13 | 74:02.18 | 4:04.01 | 333168 | 351468

Range status and errors

Selected range

Filename F:MusiqueWeinberg, MieczyslawWeinberg_ViolinSonatasVol1Weinberg, Mieczyslaw - Complete Violin Sonatas Vol. 1.wav

Peak level 100.0 %
Extraction speed 15.2 X
Range quality 100.0 %
Copy CRC 8F0E977E
Copy OK

No errors occurred

End of status report

==== Log checksum 7E3287DC9AF420FB691CA5CDD3016605C554CBFAB7CBAB1B050E0DDB76D1C839 ====
Direct Download

Tags: Repost, Sonatas, Violin, Mieczyslaw, Complete, Weinberg

Comments
Name:*
E-Mail:*
Add Comments:
Enter Code: *